<?xml version="1.0" standalone="no"?>
<!DOCTYPE svg PUBLIC "-//W3C//DTD SVG 1.1//EN" "http://www.w3.org/Graphics/SVG/1.1/DTD/svg11.dtd" >
<svg xmlns="http://www.w3.org/2000/svg" xmlns:xlink="http://www.w3.org/1999/xlink" version="1.1">
<metadata>
Created by FontForge 20190801 at Fri Apr 29 23:32:16 2022
 By www-data
Copyright 2015 The Public Sans Project Authors (https://github.com/uswds/public-sans)
</metadata>
<defs>
<font id="PublicSansBold" horiz-adv-x="0" >
  <font-face 
    font-family="PublicSansBold"
    font-weight="700"
    font-stretch="normal"
    units-per-em="2000"
    panose-1="0 0 0 0 0 0 0 0 0 0"
    ascent="1600"
    descent="-400"
    x-height="1034"
    cap-height="1446"
    bbox="-334 -480 2599 2201"
    underline-thickness="140"
    underline-position="-440"
    unicode-range="U+000D-FB02"
  />
<missing-glyph horiz-adv-x="1315" 
d="M200 1652h918q35 0 35 -42v-1876q0 -56 -65 -56h-873q-31 0 -42 12t-11 36v1880q0 46 38 46zM1051 -112v1632q0 34 -29 34h-687zM264 1433v-1617q0 -19 9.5 -29.5t34.5 -10.5h670z" />
    <glyph glyph-name="fi" unicode="fi" horiz-adv-x="1327" 
d="M241 0v831h-191v203h191v149q0 125 74 194t208 69h237l2 -194h-137q-55 0 -76 -27.5t-21 -90.5v-100h224v-203h-218v-831h-293zM921 0v1034h279v-1034h-279zM918 1182v263h284v-263h-284z" />
    <glyph glyph-name="fl" unicode="fl" horiz-adv-x="1451" 
d="M241 0v831h-191v203h191v149q0 125 74 194t208 69h237l2 -194h-137q-55 0 -76 -27.5t-21 -90.5v-100h224v-203h-218v-831h-293zM1248 -18q-114 0 -181 27t-99 71.5t-41 99t-9 110.5v1196h286v-1160q0 -57 24.5 -92.5t92.5 -43.5l49 -3v-180q-30 -10 -61 -17.5t-61 -7.5z
" />
    <glyph glyph-name=".notdef" horiz-adv-x="1315" 
d="M200 1652h918q35 0 35 -42v-1876q0 -56 -65 -56h-873q-31 0 -42 12t-11 36v1880q0 46 38 46zM1051 -112v1632q0 34 -29 34h-687zM264 1433v-1617q0 -19 9.5 -29.5t34.5 -10.5h670z" />
    <glyph glyph-name="uni0000" horiz-adv-x="53" 
 />
    <glyph glyph-name="uni0000" horiz-adv-x="53" 
 />
    <glyph glyph-name="nonmarkingreturn" horiz-adv-x="666" 
 />
    <glyph glyph-name="CR" unicode="&#xd;" horiz-adv-x="476" 
 />
    <glyph glyph-name="space" unicode=" " horiz-adv-x="451" 
 />
    <glyph glyph-name="exclam" unicode="!" horiz-adv-x="564" 
d="M183 446l-82 1000h342l-77 -1000h-183zM112 0v312h319v-312h-319z" />
    <glyph glyph-name="quotedbl" unicode="&#x22;" horiz-adv-x="959" 
d="M625 886l-76 560h298l-77 -560h-145zM188 886l-76 560h298l-77 -560h-145z" />
    <glyph glyph-name="numbersign" unicode="#" horiz-adv-x="1232" 
d="M796 -5l-154 21l214 1433l153 -15zM56 450v152h1043v-152h-1043zM371 -5l-152 21l214 1433l151 -15zM120 860v152h1043v-152h-1043z" />
    <glyph glyph-name="dollar" unicode="$" horiz-adv-x="1361" 
d="M707 -20q-260 0 -422 104.5t-186 322.5l304 6q24 -99 103.5 -150.5t199.5 -51.5q72 0 127.5 23.5t87.5 64t32 92.5q0 80 -51 119.5t-157 63.5l-237 51q-165 33 -264.5 131.5t-101.5 264.5q-1 136 73.5 235.5t203 153.5t288.5 54q164 0 283.5 -58.5t184 -157t62.5 -217.5
l-295 -5q-14 96 -64 151t-166 55q-60 0 -107 -13t-81 -36.5t-51.5 -55.5t-17.5 -72q0 -63 42.5 -99.5t160.5 -67.5l233 -57q197 -47 284.5 -161t87.5 -277q0 -125 -68.5 -218t-193.5 -144t-294 -51zM577 -191v260h252v-260h-252zM582 1393v260h253v-260h-253z" />
    <glyph glyph-name="percent" unicode="%" horiz-adv-x="1878" 
d="M345 -8l977 1470h169l-972 -1470h-174zM459 648q-104 0 -187 54.5t-131 146.5t-48 205q0 115 48.5 209t131.5 149.5t186 55.5t185 -55.5t130 -149.5t48 -209q0 -113 -47 -205t-129.5 -146.5t-186.5 -54.5zM457 796q79 0 115 65.5t36 192.5q0 131 -37 199t-114 68
q-76 0 -113 -68.5t-37 -198.5q0 -126 36.5 -192t113.5 -66zM1408 -20q-105 0 -188 54t-131 146.5t-48 207.5t48.5 209t132 149.5t186.5 55.5t185.5 -55.5t130.5 -149.5t48 -209t-47 -207.5t-129.5 -146.5t-187.5 -54zM1406 130q78 0 114 65.5t36 190.5q0 131 -37 199
t-113 68t-112.5 -68.5t-36.5 -198.5q0 -124 36 -190t113 -66z" />
    <glyph glyph-name="ampersand" unicode="&#x26;" horiz-adv-x="1567" 
d="M560 -10q-159 0 -262.5 47.5t-153.5 131.5t-50 194q0 99 40.5 175.5t121.5 141t202 128.5q-51 57 -90 106t-61 100.5t-22 115.5q0 96 54 172.5t150 121t222 44.5q123 0 223.5 -39.5t160 -110t59.5 -164.5q0 -48 -20 -96.5t-59.5 -97t-99.5 -96.5t-141 -96l226 -266
q14 31 34 80t38 110.5t26 128.5h299q-25 -89 -69.5 -173t-95 -162.5t-94.5 -151.5l286 -334h-335l-124 142q-116 -85 -237 -118.5t-228 -33.5zM632 213q58 0 129 25.5t124 74.5l-284 329q-80 -45 -135.5 -111.5t-44.5 -151.5q6 -54 38.5 -91t78.5 -56t94 -19zM713 915
q72 45 112.5 82.5t56.5 72.5t16 71q0 53 -24.5 86.5t-64 49t-84.5 13.5q-71 -2 -111.5 -42.5t-40.5 -97.5q0 -33 14 -67t36.5 -65.5t48.5 -59.5z" />
    <glyph glyph-name="quotesingle" unicode="'" horiz-adv-x="522" 
d="M188 886l-76 560h298l-77 -560h-145z" />
    <glyph glyph-name="parenleft" unicode="(" horiz-adv-x="666" 
d="M397 -286q-83 140 -146 276.5t-97.5 283.5t-34.5 318q0 249 78.5 476.5t205.5 413.5h207q-104 -195 -167 -424.5t-63 -467.5q0 -227 57 -438.5t165 -437.5h-205z" />
    <glyph glyph-name="parenright" unicode=")" horiz-adv-x="673" 
d="M31 -286q109 226 166 437.5t57 438.5q0 238 -63 467.5t-167 424.5h206q128 -186 206.5 -413.5t78.5 -476.5q0 -171 -35 -318t-97.5 -283.5t-146.5 -276.5h-205z" />
    <glyph glyph-name="asterisk" unicode="*" horiz-adv-x="946" 
d="M301 649l-157 109l207 247l-294 82l62 170l277 -121l-22 310h191l-27 -311l283 124l54 -170l-286 -83l202 -242l-157 -110l-166 274z" />
    <glyph glyph-name="plus" unicode="+" horiz-adv-x="1177" 
d="M483 256v945h213v-945h-213zM116 621v213h945v-213h-945z" />
    <glyph glyph-name="comma" unicode="," horiz-adv-x="554" 
d="M94 -280l116 272l-102 9v283h295v-249l-201 -315h-108z" />
    <glyph glyph-name="hyphen" unicode="-" horiz-adv-x="786" 
d="M120 408v213h546v-212z" />
    <glyph glyph-name="period" unicode="." horiz-adv-x="539" 
d="M99 0v318h320v-318h-320z" />
    <glyph glyph-name="slash" unicode="/" horiz-adv-x="762" 
d="M23 -37l506 1483h203l-505 -1483h-204z" />
    <glyph glyph-name="zero" unicode="0" horiz-adv-x="1289" 
d="M646 -22q-263 0 -410.5 191t-147.5 550q0 240 68 407t193 253.5t297 86.5q258 0 407 -192.5t149 -553.5q0 -359 -147 -550.5t-409 -191.5zM646 217q129 0 189 115.5t60 386.5q0 277 -61 397t-189 120t-190.5 -121t-62.5 -396q0 -270 62 -386t192 -116z" />
    <glyph glyph-name="one" unicode="1" horiz-adv-x="856" 
d="M344 0v1083h-258v165q124 0 200.5 23.5t114.5 68t45 106.5h194v-1446h-296z" />
    <glyph glyph-name="two" unicode="2" horiz-adv-x="1270" 
d="M113 0v144v74q0 110 41 190.5t108.5 140t148 104.5t161.5 85t148.5 80.5t108.5 90.5t41 118q0 87 -60.5 142t-165.5 55q-109 0 -185 -63t-94 -190h-279q2 138 64.5 250.5t187.5 178.5t314 66q162 0 279.5 -55t181.5 -153t64 -229q0 -109 -40 -188t-106 -135t-145 -98
t-157.5 -78t-144.5 -73.5t-106 -84.5t-40 -113v-13h737v-246h-1062z" />
    <glyph glyph-name="three" unicode="3" horiz-adv-x="1330" 
d="M640 -22q-174 1 -296.5 57.5t-188 161.5t-67.5 250h281q21 -123 96 -178t178 -55q90 0 154.5 26t99 72.5t34.5 106.5q0 62 -35.5 107t-98.5 70.5t-144 27.5l-138 5v232l124 7q78 3 136 29t90.5 69.5t32.5 98.5q0 53 -33 92t-91 61t-133 22q-69 0 -127 -23t-95 -75.5
t-43 -140.5h-279q0 156 73.5 259t198.5 154.5t278 51.5q162 0 288.5 -42t199.5 -128t73 -218q0 -107 -62 -188.5t-202 -129.5q80 -22 148 -67t109 -115t41 -168q0 -106 -47 -187t-130 -136t-192 -82t-233 -27z" />
    <glyph glyph-name="four" unicode="4" horiz-adv-x="1312" 
d="M751 0l1 320h-666v240l659 886h287v-881h223v-245h-223v-320h-281zM356 565h396v530z" />
    <glyph glyph-name="five" unicode="5" horiz-adv-x="1350" 
d="M698 -22q-142 0 -264 44t-211 120.5t-135 175.5l228 135q39 -68 88 -122.5t113.5 -86t150.5 -31.5q130 0 209 69t79 180q0 70 -35.5 125.5t-97.5 87.5t-145 32q-44 0 -83.5 -7.5t-80 -28t-89.5 -58.5q-14 -6 -19.5 -6t-20.5 7l-212 98l66 734h929l-11 -239h-687l-28 -349
q80 45 152.5 65t159.5 20q145 0 259.5 -54.5t181.5 -159.5t67 -256q0 -153 -69 -264t-195.5 -171t-299.5 -60z" />
    <glyph glyph-name="six" unicode="6" horiz-adv-x="1321" 
d="M683 -22q-184 0 -318 89t-205.5 250t-71.5 378q0 238 72.5 411t208.5 266.5t326 93.5q136 0 251 -49.5t187.5 -143t79.5 -224.5h-267q-26 91 -88 138.5t-157 47.5q-104 0 -173 -59t-99 -165t-16 -247q33 48 84 81.5t114 51.5t131 18q147 0 257 -54.5t172 -154.5t62 -234
q0 -142 -69.5 -253.5t-193.5 -176t-287 -64.5zM673 202q70 0 126.5 32.5t90.5 90.5t34 133q0 80 -33 133t-89.5 79.5t-127.5 26.5q-62 0 -119.5 -27.5t-94 -70t-36.5 -86.5q-1 -97 30.5 -166.5t88 -107t130.5 -37.5z" />
    <glyph glyph-name="seven" unicode="7" horiz-adv-x="1252" 
d="M349 0q8 88 40 222.5t93.5 298t155 339.5t223.5 347h-775v239h1080v-239q-69 -86 -138.5 -203t-133 -250t-114.5 -269t-82 -261t-34 -224h-315z" />
    <glyph glyph-name="eight" unicode="8" horiz-adv-x="1342" 
d="M670 -21q-174 0 -305 51.5t-204 146.5t-73 224q0 83 41 157.5t104 126t130 65.5q-89 42 -151 120t-62 189q0 132 68.5 222.5t186.5 137.5t265 47q149 0 266.5 -47t185.5 -137.5t68 -222.5q0 -111 -61 -189t-150 -120q66 -14 129.5 -65.5t104.5 -126t41 -157.5
q0 -129 -72.5 -224t-204 -146.5t-307.5 -51.5zM670 199q128 0 200.5 57.5t72.5 152.5q0 64 -33 112.5t-94 76.5t-146 28q-83 0 -144 -28t-94 -76.5t-33 -112.5q0 -95 73 -152.5t198 -57.5zM670 863q100 0 164.5 53.5t64.5 148.5q0 94 -65 149t-164 55q-98 0 -163 -55
t-65 -149q0 -95 65 -148.5t163 -53.5z" />
    <glyph glyph-name="nine" unicode="9" horiz-adv-x="1318" 
d="M619 -22q-135 0 -252 52t-191 146.5t-83 221.5h278q18 -84 80 -136.5t156 -52.5q104 0 182.5 49t118 156t27.5 280q-28 -53 -77.5 -92.5t-115.5 -61t-147 -21.5q-147 0 -260.5 55.5t-178 158t-64.5 243.5q0 142 68 253t190 174t286 63q184 0 317.5 -87.5t205 -248
t71.5 -377.5q0 -259 -73.5 -431.5t-210.5 -258t-327 -85.5zM645 751q61 0 118.5 27.5t94.5 69.5t37 87q1 97 -30.5 166.5t-88 106.5t-131.5 37q-69 0 -123 -32t-85 -90t-31 -134q0 -113 66 -175.5t173 -62.5z" />
    <glyph glyph-name="colon" unicode=":" horiz-adv-x="539" 
d="M99 696v313h320v-313h-320zM99 6v312h320v-312h-320z" />
    <glyph glyph-name="semicolon" unicode=";" horiz-adv-x="557" 
d="M99 -309l131 309h-113v314h320v-278l-219 -345h-119zM114 687v318h320v-318h-320z" />
    <glyph glyph-name="less" unicode="&#x3c;" horiz-adv-x="1155" 
d="M1038 208l-922 357v242l922 360v-251l-601 -232l601 -225v-251z" />
    <glyph glyph-name="equal" unicode="=" horiz-adv-x="1177" 
d="M116 811v213l945 1v-213zM116 354v213h945v-213h-945z" />
    <glyph glyph-name="greater" unicode="&#x3e;" horiz-adv-x="1155" 
d="M117 208v251l602 225l-603 232v251l923 -360v-242z" />
    <glyph glyph-name="question" unicode="?" horiz-adv-x="1069" 
d="M386 452q0 110 33.5 190.5t83 141t98.5 111.5t82.5 102.5t33.5 113.5q0 71 -53.5 113t-134.5 42q-54 0 -105 -23.5t-91.5 -65.5t-62.5 -99l-248 60q64 158 195.5 243t313.5 85q143 0 250 -46t166.5 -123t59.5 -171q0 -98 -39.5 -167t-96.5 -123.5t-114.5 -108t-96.5 -119
t-39 -156.5h-235zM343 0v312h320v-312h-320z" />
    <glyph glyph-name="at" unicode="@" horiz-adv-x="1655" 
d="M838 -220q-179 0 -320.5 57t-240 157.5t-150 232.5t-51.5 282q0 158 55.5 298.5t160.5 249t252.5 170t331.5 61.5q132 0 257.5 -36t226 -112t160 -194.5t59.5 -284.5q0 -148 -48.5 -261.5t-135.5 -177.5t-200 -64q-85 0 -128 29t-60 64q-7 12 -11.5 11.5t-13.5 -11.5
q-43 -52 -109 -86.5t-151 -34.5q-83 0 -150 42.5t-106.5 120.5t-38.5 182q0 120 48.5 223t137 165.5t208.5 62.5q82 0 130 -29t82 -71q4 -5 9 -3.5t6 10.5l11 43h168l-72 -430q-12 -71 6 -97t54 -26q47 0 90 36.5t70.5 109t27.5 180.5q0 135 -44.5 226.5t-119.5 147
t-169.5 80.5t-193.5 25q-160 0 -277 -49t-192.5 -134.5t-113 -196.5t-37.5 -236q0 -135 42 -242.5t121.5 -183.5t193.5 -115.5t257 -39.5q90 0 152.5 16t111.5 43t98 60l89 -119q-76 -61 -201 -106t-282 -45zM773 307q57 0 103 33.5t74 87t33 113.5q5 62 -13 109t-53 74
t-81 27q-57 0 -102.5 -34.5t-72.5 -92.5t-27 -129q0 -78 34.5 -133t104.5 -55z" />
    <glyph glyph-name="A" unicode="A" horiz-adv-x="1453" 
d="M55 0l517 1446h309l517 -1446h-291l-118 335h-521l-120 -335h-293zM534 590h384l-191 575z" />
    <glyph glyph-name="B" unicode="B" horiz-adv-x="1369" 
d="M162 0v1446h524q284 0 421.5 -97.5t137.5 -281.5q0 -108 -55 -187.5t-196 -138.5q91 -23 147 -62t86 -86.5t41 -99t11 -101.5q0 -200 -136 -296t-433 -96h-548zM453 226h263q132 0 199.5 53t67.5 142q0 64 -33 107.5t-89.5 65.5t-128.5 22h-279v-390zM453 848h279
q45 0 86.5 10.5t74 32.5t51.5 56.5t19 81.5q0 94 -70.5 142.5t-180.5 48.5h-259v-372z" />
    <glyph glyph-name="C" unicode="C" horiz-adv-x="1436" 
d="M751 -20q-202 0 -349 94t-226.5 264t-79.5 397q0 228 79 391.5t226 251.5t350 88q163 0 290.5 -65.5t206 -178.5t92.5 -255h-306q-14 75 -51 133.5t-97 92t-144 33.5q-101 0 -174 -49t-112 -158t-39 -288q0 -270 86.5 -390.5t238.5 -120.5q84 0 144 38.5t97 102t51 139.5
h306q-13 -103 -50 -196.5t-105 -166.5t-175 -115t-259 -42z" />
    <glyph glyph-name="D" unicode="D" horiz-adv-x="1440" 
d="M162 0v1446h61.5h119t137 -0.5t114.5 -1.5q263 -6 429 -94t243.5 -246t77.5 -374q0 -225 -82 -388.5t-250.5 -252.5t-427.5 -89h-422zM456 236h134q124 0 225.5 48t162.5 157t61 291q0 169 -54 274.5t-154 154.5t-237 49h-138v-974z" />
    <glyph glyph-name="E" unicode="E" horiz-adv-x="1269" 
d="M162 0v1446h993l-1 -246h-699v-351h607v-241h-609v-359l712 -1v-248h-1003z" />
    <glyph glyph-name="F" unicode="F" horiz-adv-x="1227" 
d="M162 0v1446h984l-1 -244h-689v-363h597v-239h-597v-600h-294z" />
    <glyph glyph-name="G" unicode="G" horiz-adv-x="1518" 
d="M747 -20q-199 0 -345.5 90.5t-226 256.5t-79.5 392q0 230 83.5 397.5t233.5 258.5t350 91q129 0 235 -41t184.5 -112t123 -160.5t48.5 -185.5h-308q-13 69 -51.5 126t-98.5 91.5t-140 34.5q-96 0 -174 -49.5t-123 -157.5t-45 -285q0 -143 29.5 -238t79.5 -150.5
t114 -78.5t131 -23q64 0 114.5 21.5t86.5 55.5t57 74.5t27 79.5l11 88h-299v202l605 -3v-755h-199v189q-37 -49 -91.5 -97.5t-135 -80t-197.5 -31.5z" />
    <glyph glyph-name="H" unicode="H" horiz-adv-x="1540" 
d="M162 0v1446h291v-580h633v580h292v-1446h-292v621h-633v-621h-291z" />
    <glyph glyph-name="I" unicode="I" horiz-adv-x="615" 
d="M162 0v1446h291v-1446h-291z" />
    <glyph glyph-name="J" unicode="J" horiz-adv-x="804" 
d="M304 -20q-69 0 -142 11.5t-107 20.5l6 267q29 -6 66.5 -16t83.5 -10q101 0 136 53.5t35 173.5v966h292v-1044q0 -138 -30 -232t-110 -142t-230 -48z" />
    <glyph glyph-name="K" unicode="K" horiz-adv-x="1434" 
d="M162 0v1446h303v-662l527 662h335l-439 -560l492 -886h-318l-383 673l-214 -258v-415h-303z" />
    <glyph glyph-name="L" unicode="L" horiz-adv-x="1155" 
d="M162 0v1446h294v-1199h628v-247h-922z" />
    <glyph glyph-name="M" unicode="M" horiz-adv-x="1835" 
d="M162 0v1446h424l331 -1031l334 1031h423v-1446h-295v1106l-348 -1106h-229l-346 1101v-1101h-294z" />
    <glyph glyph-name="N" unicode="N" horiz-adv-x="1564" 
d="M162 0v1446h289l660 -957v957h292v-1446h-263l-687 995v-995h-291z" />
    <glyph glyph-name="O" unicode="O" horiz-adv-x="1521" 
d="M763 -20q-205 0 -354.5 89.5t-231 255t-81.5 395.5q0 231 82.5 398t232.5 257.5t352 90.5q201 0 350 -90t230.5 -257t81.5 -399q0 -229 -80.5 -395t-229.5 -255.5t-352 -89.5zM763 220q106 0 183.5 50.5t119.5 160t42 285.5q0 181 -42.5 293t-120 164.5t-182.5 52.5
t-183 -52.5t-121 -165t-43 -292.5q0 -177 43 -286t121 -159.5t183 -50.5z" />
    <glyph glyph-name="P" unicode="P" horiz-adv-x="1305" 
d="M162 0v1446h532q158 0 283 -54.5t197.5 -160.5t72.5 -259q0 -144 -64 -246t-179.5 -156t-271.5 -54h-276v-516h-294zM453 742h271q110 0 180 70.5t70 174.5q0 108 -74 171.5t-180 63.5h-267v-480z" />
    <glyph glyph-name="Q" unicode="Q" horiz-adv-x="1546" 
d="M1421 -246q-94 0 -178.5 16t-162.5 67.5t-153 156.5q-50 -7 -87.5 -10.5t-77.5 -3.5q-203 0 -352.5 88.5t-231.5 254t-82 397.5t82.5 399t232 257t351.5 90q203 0 352 -90t231 -257t82 -399q0 -198 -59.5 -348t-181.5 -251q24 -60 89.5 -96t145.5 -37v-234zM762 220
q164 0 255 115.5t91 381.5q0 269 -91 389t-255 120q-163 0 -254 -120.5t-91 -389.5q0 -265 91 -380.5t254 -115.5z" />
    <glyph glyph-name="R" unicode="R" horiz-adv-x="1392" 
d="M162 0v1446h610q173 0 283 -55t162 -152.5t52 -224.5q0 -114 -35.5 -192.5t-93 -130.5t-125.5 -85l269 -606h-303l-235 557h-293v-557h-291zM453 782h267q117 0 185.5 63t68.5 162q0 100 -66 158t-167 58h-288v-441z" />
    <glyph glyph-name="S" unicode="S" horiz-adv-x="1384" 
d="M704 -20q-108 0 -211 27t-188 81t-139.5 135t-65.5 190h299q15 -66 57.5 -111t110 -69t154.5 -24q69 0 131 20t101 61t39 103q0 74 -54 111.5t-147 59.5l-271 59q-115 24 -200.5 74.5t-131.5 132t-46 198.5q0 135 74.5 233t203 150.5t288.5 52.5q181 0 305.5 -58.5
t190.5 -158t67 -221.5h-292q-8 75 -46 120.5t-97.5 66t-135.5 20.5q-131 0 -191 -53t-60 -123q0 -66 45.5 -106.5t146.5 -61.5l251 -54q140 -27 227 -85.5t127 -141.5t40 -186q0 -131 -74.5 -230.5t-205.5 -155.5t-302 -56z" />
    <glyph glyph-name="T" unicode="T" horiz-adv-x="1232" 
d="M475 0v1186h-437v260h1157v-260h-427v-1186h-293z" />
    <glyph glyph-name="U" unicode="U" horiz-adv-x="1448" 
d="M740 -20q-211 0 -338 70.5t-183.5 200.5t-56.5 310v885h297v-907q0 -162 78 -236.5t203 -74.5q83 0 147 32.5t100.5 101t36.5 177.5v907h295v-895q0 -175 -57 -303.5t-184.5 -198t-337.5 -69.5z" />
    <glyph glyph-name="V" unicode="V" horiz-adv-x="1407" 
d="M538 0l-500 1446h279l387 -1107l385 1107h280l-500 -1446h-331z" />
    <glyph glyph-name="W" unicode="W" horiz-adv-x="1937" 
d="M464 0l-426 1446h286l269 -955l269 955h211l272 -955l269 955h285l-427 -1446h-233l-272 945l-274 -945h-229z" />
    <glyph glyph-name="X" unicode="X" horiz-adv-x="1434" 
d="M55 0l481 734l-466 712h361l289 -468l286 468h310l-446 -674l509 -772h-364l-326 522l-320 -522h-314z" />
    <glyph glyph-name="Y" unicode="Y" horiz-adv-x="1335" 
d="M521 0v609l-502 837h316l333 -586l329 586h319l-503 -838v-608h-292z" />
    <glyph glyph-name="Z" unicode="Z" horiz-adv-x="1339" 
d="M108 0v142l734 1060h-685v244h1101v-136l-744 -1063h736v-247h-1142z" />
    <glyph glyph-name="bracketleft" unicode="[" horiz-adv-x="674" 
d="M149 -322l-1 1768h459v-165h-219v-1437h218v-166h-457z" />
    <glyph glyph-name="backslash" unicode="\" horiz-adv-x="762" 
d="M528 -37l-505 1483h204l505 -1483h-204z" />
    <glyph glyph-name="bracketright" unicode="]" horiz-adv-x="674" 
d="M68 -322v166h219l-1 1437h-218v165h458l-1 -1768h-457z" />
    <glyph glyph-name="asciicircum" unicode="^" horiz-adv-x="968" 
d="M681 245l-207 511l-208 -510h-197l311 736q19 45 56 61.5t74.5 2t58.5 -62.5l310 -738h-198z" />
    <glyph glyph-name="underscore" unicode="_" horiz-adv-x="1106" 
d="M116 -276v211l867 1v-212h-867z" />
    <glyph glyph-name="grave" unicode="`" horiz-adv-x="528" 
d="M307 1155l-296 291h301l206 -291h-211z" />
    <glyph glyph-name="a" unicode="a" horiz-adv-x="1133" 
d="M432 -20q-98 0 -177.5 37t-125.5 107.5t-46 171.5q0 170 127 258.5t401 91.5l130 2v62q0 71 -41.5 109.5t-129.5 37.5q-63 -1 -120.5 -30t-79.5 -101h-243q6 112 65.5 184.5t160.5 108t231 35.5q158 0 254 -39.5t139.5 -113t43.5 -174.5v-727h-244l-24 178
q-53 -112 -132.5 -155t-188.5 -43zM531 172q39 0 76.5 14.5t67.5 39t47.5 55.5t18.5 64v153l-105 -2q-73 -1 -136 -17.5t-101.5 -53.5t-38.5 -100q0 -72 49.5 -112.5t121.5 -40.5z" />
    <glyph glyph-name="b" unicode="b" horiz-adv-x="1217" 
d="M701 -20q-77 0 -133 20t-95 53.5t-64 74.5t-39 84l-33 -212h-212v1486h293v-592q19 33 49 62t70 51t88.5 34.5t103.5 12.5q193 0 302.5 -139t109.5 -392q0 -164 -50 -286t-148 -189.5t-242 -67.5zM637 190q94 0 156.5 77.5t62.5 259.5q0 161 -59.5 238t-161.5 77
q-73 0 -121 -34.5t-71.5 -104.5t-24.5 -176q0 -183 54.5 -260t164.5 -77z" />
    <glyph glyph-name="c" unicode="c" horiz-adv-x="1094" 
d="M575 -20q-144 0 -257 64t-177.5 183.5t-64.5 285.5q0 160 62 282t174.5 190.5t262.5 68.5q130 0 224.5 -53t149 -143t62.5 -201h-243q-7 41 -29 81.5t-62 67t-100 26.5q-102 0 -165.5 -78.5t-63.5 -238.5q0 -151 62 -239.5t173 -88.5q59 0 98.5 29t61.5 69.5t28 75.5h237
q-7 -107 -62 -193.5t-149.5 -137t-221.5 -50.5z" />
    <glyph glyph-name="d" unicode="d" horiz-adv-x="1217" 
d="M516 -20q-208 0 -324 143.5t-116 399.5q0 162 47 281t139 184.5t225 65.5q56 0 104.5 -12.5t88.5 -34.5t70 -51t49 -62v592h293v-1486h-212l-33 212q-15 -43 -39.5 -84t-63.5 -74.5t-95.5 -53.5t-132.5 -20zM580 190q110 0 164.5 77t54.5 260q-1 106 -25 176t-71.5 104.5
t-120.5 34.5q-95 0 -158 -72.5t-63 -242.5q0 -173 59 -255t160 -82z" />
    <glyph glyph-name="e" unicode="e" horiz-adv-x="1153" 
d="M600 -20q-154 0 -270.5 64.5t-181.5 182.5t-65 278q0 155 59.5 279.5t171.5 197t271 72.5q158 0 265 -66.5t162 -185t55 -273.5v-79h-695q0 -79 26 -137.5t75.5 -90t119.5 -31.5q75 0 131 32t79 105h263q-18 -110 -88 -188t-170 -119t-208 -41zM372 624h422
q0 62 -23.5 114t-70 82t-116.5 30q-67 0 -114.5 -32.5t-73 -84.5t-24.5 -109z" />
    <glyph glyph-name="f" unicode="f" horiz-adv-x="793" 
d="M241 0v831h-191v203h191v149q0 125 74 194t208 69h237l2 -194h-137q-55 0 -76 -27.5t-21 -90.5v-100h224v-203h-218v-831h-293z" />
    <glyph glyph-name="g" unicode="g" horiz-adv-x="1257" 
d="M605 -342q-276 0 -419.5 70t-143.5 184q0 53 27.5 89t65 57.5t69 33t39.5 15.5q-16 9 -46.5 26.5t-55.5 48t-25 79.5q0 55 52.5 102t159.5 65q-102 48 -155.5 130t-53.5 168q0 102 64 175t175 111t251 38q106 0 174.5 -22.5t126.5 -58.5q23 9 60.5 23.5t82 32t86.5 35
t75 31.5l-2 -226l-178 -29q10 -27 16 -58t6 -51q0 -90 -52.5 -168t-156.5 -126t-259 -48q-18 0 -50 1t-52 3q-58 -3 -80.5 -15t-22.5 -28q0 -24 45 -31.5t136 -13.5q33 -2 90 -5t125 -8q190 -13 283.5 -93.5t93.5 -202.5q0 -145 -137.5 -239.5t-413.5 -94.5zM652 -179
q121 0 173.5 30t52.5 86q0 47 -40.5 76.5t-116.5 34.5l-237 16q-47 2 -82 -14t-54.5 -44t-19.5 -60q0 -65 79 -95t245 -30zM597 548q83 0 133 45.5t50 123.5q0 81 -50 130t-133 49t-134 -49t-51 -130q0 -77 49.5 -123t135.5 -46z" />
    <glyph glyph-name="h" unicode="h" horiz-adv-x="1185" 
d="M125 0v1486h290v-601q25 36 63 71.5t95 59.5t139 24q99 0 180.5 -38.5t131 -111.5t49.5 -178v-712h-293v669q0 70 -50.5 107.5t-122.5 37.5q-47 0 -91 -17t-71.5 -51.5t-27.5 -85.5v-660h-292z" />
    <glyph glyph-name="i" unicode="i" horiz-adv-x="534" 
d="M128 0v1034h279v-1034h-279zM125 1182v263h284v-263h-284z" />
    <glyph glyph-name="j" unicode="j" horiz-adv-x="577" 
d="M101 -332q-81 0 -106.5 14.5l-25.5 14.5l-1 195l80 8q62 8 86 34t24 76v1024h291v-1027q0 -169 -82 -254t-266 -85zM154 1182v263h298v-263h-298z" />
    <glyph glyph-name="k" unicode="k" horiz-adv-x="1159" 
d="M125 0v1486h292v-881l380 429h314l-376 -412l389 -622h-291l-279 446l-137 -146v-300h-292z" />
    <glyph glyph-name="l" unicode="l" horiz-adv-x="658" 
d="M455 -18q-114 0 -181 27t-99 71.5t-41 99t-9 110.5v1196h286v-1160q0 -57 24.5 -92.5t92.5 -43.5l49 -3v-180q-30 -10 -61 -17.5t-61 -7.5z" />
    <glyph glyph-name="m" unicode="m" horiz-adv-x="1791" 
d="M125 0v1034h286v-146q47 68 126.5 117t200.5 49q53 0 108 -19t103.5 -55.5t78.5 -91.5q50 71 131.5 118.5t181.5 47.5q58 0 117.5 -19t109.5 -62t80.5 -114.5t30.5 -176.5v-682h-292v646q0 62 -24.5 99.5t-62 54t-79.5 16.5q-39 0 -79 -15.5t-68 -49.5t-28 -89v-662h-291
v672q0 47 -25 79t-62.5 48.5t-76.5 16.5q-40 0 -80 -16.5t-67 -51t-27 -86.5v-662h-292z" />
    <glyph glyph-name="n" unicode="n" horiz-adv-x="1186" 
d="M125 0v1034h287v-146q24 38 62.5 73.5t97.5 58.5t140 23q95 0 177.5 -37t133.5 -116.5t51 -207.5v-682h-292v646q0 84 -50 126t-122 42q-48 0 -92.5 -17t-72.5 -51t-28 -84v-662h-292z" />
    <glyph glyph-name="o" unicode="o" horiz-adv-x="1151" 
d="M576 -20q-152 0 -264.5 65t-174 184t-61.5 282t61.5 285t174 190t265.5 68t265 -66.5t173 -188.5t61 -288q0 -156 -59.5 -275.5t-171 -187.5t-269.5 -68zM577 197q77 0 124 45t68 118.5t21 160.5q0 82 -19 155t-66 118t-128 45q-77 0 -124.5 -42.5t-69.5 -115t-22 -160.5
q0 -81 20 -155.5t67 -121.5t129 -47z" />
    <glyph glyph-name="p" unicode="p" horiz-adv-x="1214" 
d="M125 -322v1356h293l1 -149q23 37 56.5 67.5t74.5 53.5t89 35.5t101 12.5q115 0 205 -56.5t141.5 -174t51.5 -298.5q0 -188 -55.5 -308.5t-152.5 -178.5t-219 -58q-50 0 -94 13.5t-81.5 37.5t-67 55.5t-51.5 68.5v-477h-292zM641 194q95 0 159.5 79t64.5 250
q0 150 -61.5 234.5t-162.5 84.5q-113 0 -168.5 -91.5t-55.5 -227.5q0 -87 24.5 -162t74 -121t125.5 -46z" />
    <glyph glyph-name="q" unicode="q" horiz-adv-x="1214" 
d="M797 -322v477q-21 -37 -51 -68.5t-67.5 -55.5t-81.5 -37.5t-94 -13.5q-117 0 -214 55t-155 175.5t-58 314.5q0 175 49 292.5t139 177t210 59.5q53 0 101 -12.5t89 -35.5t74.5 -53.5t56.5 -67.5l2 149h292v-1356h-292zM573 194q76 0 126 46t74.5 121t24.5 162
q0 136 -55 227.5t-170 91.5q-94 0 -159 -80.5t-65 -238.5q0 -163 62 -246t162 -83z" />
    <glyph glyph-name="r" unicode="r" horiz-adv-x="824" 
d="M125 0v1034h281v-245q25 79 70.5 138.5t110.5 93t147 33.5q14 0 26.5 -1.5t18.5 -4.5v-278q-9 4 -21.5 5t-22.5 2q-86 7 -147 -5t-99 -41t-55 -71t-17 -94v-566h-292z" />
    <glyph glyph-name="s" unicode="s" horiz-adv-x="1054" 
d="M541 -20q-108 0 -207.5 35.5t-169 112t-87.5 198.5h252q14 -55 48.5 -87t78.5 -45.5t84 -13.5q84 0 135.5 26.5t51.5 81.5q0 42 -30.5 67t-100.5 38l-182 38q-137 29 -220.5 98.5t-84.5 197.5q-1 93 48.5 167t147 117t238.5 43q191 0 305.5 -84t116.5 -237h-244
q-11 60 -59.5 92.5t-122.5 32.5q-75 0 -124 -27t-49 -82q0 -41 40 -64.5t124 -40.5l168 -38q87 -21 141.5 -57.5t84.5 -79.5t41.5 -86.5t11.5 -78.5q0 -103 -55 -175.5t-153 -110.5t-228 -38z" />
    <glyph glyph-name="t" unicode="t" horiz-adv-x="833" 
d="M571 -11q-137 0 -211.5 35t-103 98t-28.5 146v563h-168v203h177l74 312h208v-311h230v-204h-230l2 -551q0 -38 9.5 -56.5t30 -24t52.5 -5.5h139v-180q-21 -9 -63 -17t-118 -8z" />
    <glyph glyph-name="u" unicode="u" horiz-adv-x="1190" 
d="M506 -20q-72 0 -141.5 22t-126.5 65t-91.5 106t-34.5 146v715h292v-678q0 -72 47 -118t138 -46q86 0 136.5 44.5t50.5 124.5v673h289v-1034h-220l-34 205q-18 -91 -67.5 -139.5t-113 -67t-124.5 -18.5z" />
    <glyph glyph-name="v" unicode="v" horiz-adv-x="1041" 
d="M415 0l-388 1034h264l226 -659h8l223 659h267l-388 -1034h-212z" />
    <glyph glyph-name="w" unicode="w" horiz-adv-x="1577" 
d="M365 0l-335 1034h258l198 -641h7l190 641h209l192 -641h8l192 641h264l-340 -1034h-233l-192 626l-193 -626h-225z" />
    <glyph glyph-name="x" unicode="x" horiz-adv-x="1176" 
d="M35 0l397 539l-363 495h306l215 -290l214 290h305l-366 -495l398 -539h-306l-247 337l-247 -337h-306z" />
    <glyph glyph-name="y" unicode="y" horiz-adv-x="1126" 
d="M287 -330q-106 0 -150 17.5l-44 17.5v186l103 -4q67 -4 108 6.5t62 27.5t30.5 35.5t13.5 29.5l19 57l-402 991h289l248 -674l250 674h286l-419 -1040q-54 -132 -114.5 -202t-130 -96t-149.5 -26z" />
    <glyph glyph-name="z" unicode="z" horiz-adv-x="993" 
d="M63 0v163l510 667h-484v204h838v-163l-511 -667h514v-204h-867z" />
    <glyph glyph-name="braceleft" unicode="{" horiz-adv-x="769" 
d="M561 -322q-79 0 -150.5 27t-116 80t-44.5 132v407q0 47 -23.5 86t-73.5 63t-129 24v147q120 1 173 47.5t53 133.5v385q0 78 45 130.5t115.5 79t145.5 26.5h145v-165h-87q-57 0 -83.5 -14t-33.5 -37.5t-7 -52.5v-396q-2 -70 -34.5 -113.5t-80.5 -64.5t-95 -26
q-12 -1 -12.5 -6t12.5 -7q46 -4 94 -23.5t81 -64.5t35 -127v-400q0 -55 26 -80t98 -25h87v-166h-140z" />
    <glyph glyph-name="bar" unicode="|" horiz-adv-x="537" 
d="M162 -322v1974h213v-1974h-213z" />
    <glyph glyph-name="braceright" unicode="}" horiz-adv-x="768" 
d="M29 -322v166h87q72 0 98 25t26 80v400q2 82 35 127t81 64.5t95 23.5q14 2 13 7t-13 6q-48 5 -95.5 26t-80.5 64.5t-35 113.5v396q0 29 -7 52.5t-33.5 37.5t-83.5 14h-87v165h145q76 0 146 -26.5t115 -79t45 -130.5v-385q0 -87 53 -133.5t173 -47.5v-147q-79 0 -128.5 -24
t-73.5 -63t-24 -86v-407q0 -79 -44.5 -132t-116 -80t-150.5 -27h-140z" />
    <glyph glyph-name="asciitilde" unicode="~" horiz-adv-x="1224" 
d="M196 555l-83 147q74 76 146 127.5t170 51.5q62 0 109.5 -19t89 -42.5t82.5 -42.5t89 -19q72 0 125 42.5t88 99.5l85 -145q-50 -88 -128 -134.5t-165 -46.5q-60 0 -108 18.5t-90.5 43t-85 43t-93.5 18.5q-76 0 -130 -44.5t-101 -97.5z" />
    <glyph glyph-name="uni00A0" unicode="&#xa0;" horiz-adv-x="451" 
 />
    <glyph glyph-name="exclamdown" unicode="&#xa1;" horiz-adv-x="565" 
d="M101 -322l82 908h182l79 -908h-343zM112 722v312h319v-312h-319z" />
    <glyph glyph-name="cent" unicode="&#xa2;" horiz-adv-x="1122" 
d="M603 202q-144 0 -257 64t-178 183.5t-65 285.5q0 160 62 282t174.5 190.5t263.5 68.5q129 0 224 -53t149.5 -143t61.5 -201h-243q-6 41 -28.5 81.5t-62 67t-99.5 26.5q-103 0 -166.5 -78.5t-63.5 -238.5q0 -151 62 -239.5t173 -88.5q59 0 99 29t61.5 69.5t27.5 75.5h237
q-6 -107 -61.5 -193.5t-150 -137t-220.5 -50.5zM504 0v336h193v-336h-193zM504 1110v336h193v-336h-193z" />
    <glyph glyph-name="sterling" unicode="&#xa3;" horiz-adv-x="1296" 
d="M41 0v242h68q75 0 123 48.5t48 157.5q0 48 -5 97.5t-16 131.5h-204v162h171l-20 181q-14 108 17 191t96 140t153 86t185 29q108 0 200 -34t160.5 -98.5t106.5 -154.5l-254 -78q-32 70 -69.5 101.5t-99.5 31.5q-47 0 -84 -20t-58 -58t-21 -91q0 -42 8.5 -97.5t23.5 -127.5
h293v-162h-270q6 -68 5.5 -114.5t-10.5 -96.5q-7 -57 -23.5 -97t-40 -69.5t-52.5 -56.5h269q97 0 145.5 36t80.5 124l247 -54q-48 -174 -160 -262t-291 -88h-722z" />
    <glyph glyph-name="currency" unicode="&#xa4;" horiz-adv-x="1156" 
d="M197 234l-122 126l132 130q-35 56 -52.5 111.5t-17.5 125.5q0 123 60 220q9 18 -3 31l-118 118l122 127l134 -135q52 34 113 53.5t122 19.5q125 0 230 -65q13 -8 23 2l111 112l122 -125l-122 -121q34 -53 53 -112t19 -124q0 -60 -16.5 -119.5t-49.5 -107.5q-6 -10 0 -16
l117 -113l-122 -125l-121 121q-54 -35 -113.5 -54.5t-123.5 -19.5q-125 0 -227 62q-17 11 -31 -3zM571 487q69 0 123.5 33.5t85.5 88.5t31 119q0 63 -31 118t-85.5 89t-123.5 34t-123.5 -34t-86 -89t-31.5 -118q0 -64 31.5 -119t86 -88.5t123.5 -33.5z" />
    <glyph glyph-name="yen" unicode="&#xa5;" horiz-adv-x="1318" 
d="M499 0v603l-510 843h378l329 -579l326 579h307l-498 -808v-638h-332zM201 224v158l929 1v-158zM201 537v159l929 1v-160h-929z" />
    <glyph glyph-name="brokenbar" unicode="&#xa6;" horiz-adv-x="537" 
d="M162 837v815h213v-815h-213zM162 -322v816h213v-816h-213z" />
    <glyph glyph-name="section" unicode="&#xa7;" horiz-adv-x="1025" 
d="M515 -155q-114 0 -206.5 32t-157.5 85t-95 115l179 90q42 -56 107 -100t168 -44q79 0 129.5 27.5t50.5 81.5q0 40 -33 73t-124 69l-153 57q-159 60 -231 133.5t-72 186.5q0 92 48 158.5t128 103.5q-62 37 -97.5 75.5t-50 80.5t-14.5 89q0 87 48.5 156.5t139 110.5
t215.5 41q103 0 187 -31t143.5 -81.5t89.5 -107.5l-180 -88q-43 49 -98.5 89.5t-132.5 40.5q-71 0 -111.5 -28t-40.5 -75q0 -35 31 -62t81 -47l156 -60q167 -64 242.5 -140t75.5 -193q0 -94 -45.5 -156t-117.5 -104q92 -51 133.5 -111t41.5 -143q0 -95 -50 -168t-147 -114.5
t-237 -41.5zM568 515q41 -4 71 13t46 47.5t13 67.5q-5 44 -37.5 78t-115.5 65l-89 35q-45 -4 -77 -22.5t-49 -46.5t-17 -59q0 -43 30.5 -71.5t125.5 -66.5z" />
    <glyph glyph-name="dieresis" unicode="&#xa8;" horiz-adv-x="762" 
d="M476 1208l3 238h273l-2 -238h-274zM10 1208l3 238h273l-2 -238h-274z" />
    <glyph glyph-name="copyright" unicode="&#xa9;" horiz-adv-x="1661" 
d="M823 -20q-154 0 -288.5 57.5t-236.5 159.5t-159.5 237t-57.5 290q0 153 57.5 287.5t159.5 236.5t236.5 160t288.5 58t288.5 -58t237 -160t160.5 -236.5t58 -287.5q0 -155 -58 -290t-160.5 -237t-237 -159.5t-288.5 -57.5zM829 313q-117 0 -206.5 52t-141 145t-51.5 215
q0 124 52 218t142 146.5t205 52.5q97 0 168 -39t116 -98.5t65 -121.5l-203 -23q-18 49 -48.5 89t-90.5 40q-76 0 -123.5 -65t-47.5 -195q0 -134 50 -198.5t133 -64.5q70 0 112 39.5t72 99.5l146 -37q-12 -36 -38.5 -80t-69 -84t-102.5 -65.5t-139 -25.5zM823 143
q122 0 225.5 40.5t180 116.5t118.5 183.5t42 240.5q0 132 -42 238.5t-118.5 183.5t-180 118.5t-225.5 41.5q-124 0 -227.5 -41.5t-179 -118.5t-117 -183.5t-41.5 -238.5q0 -133 41.5 -240.5t117 -183.5t179 -116.5t227.5 -40.5z" />
    <glyph glyph-name="ordfeminine" unicode="&#xaa;" horiz-adv-x="813" 
d="M297 794q-103 0 -158.5 50.5t-55.5 133.5q0 97 90.5 157.5t249.5 65.5l77 4v43q0 57 -33 76t-72 19q-40 0 -74 -17t-59 -67l-163 36q37 83 105 126t198 43q154 -1 216.5 -56t62.5 -151v-137.5v-113.5q0 -11 0.5 -37.5t2 -55.5t4.5 -48l14 -59h-187l-15 70
q-53 -41 -97.5 -61.5t-105.5 -20.5zM369 913q59 0 99 35q15 14 23.5 27t8.5 31v97l-64 -3q-78 -3 -122.5 -32.5t-44.5 -78.5q0 -34 26.5 -55t73.5 -21z" />
    <glyph glyph-name="guillemotleft" unicode="&#xab;" horiz-adv-x="999" 
d="M719 129l-238 373l237 389h156l-163 -389l162 -373h-154zM338 129l-237 373l236 389h156l-163 -389l162 -373h-154z" />
    <glyph glyph-name="logicalnot" unicode="&#xac;" horiz-adv-x="1177" 
d="M116 621v213h945v-213h-945zM824 319l-1 442h238v-442h-237z" />
    <glyph glyph-name="uni00AD" unicode="&#xad;" horiz-adv-x="786" 
d="M120 408v213h546v-212z" />
    <glyph glyph-name="registered" unicode="&#xae;" horiz-adv-x="1105" 
d="M547 536q-130 0 -235.5 62t-168 167.5t-62.5 234.5t62.5 235t168 168.5t235.5 62.5q128 0 233.5 -62.5t168 -168.5t62.5 -235t-62.5 -234.5t-168 -167.5t-233.5 -62zM547 652q101 0 177 43t118 121t42 184t-42 184.5t-118 122t-177 43.5q-104 0 -180 -43.5t-118 -122
t-42 -184.5t42 -184t118 -121t180 -43zM359 767v461h216q83 0 129.5 -31.5t46.5 -91.5q0 -48 -27.5 -78.5t-65.5 -45.5l91 -214h-126l-70 202h-80v-202h-114zM473 1050h97q26 0 44 12t18 36q0 23 -17 36.5t-51 13.5h-91v-98z" />
    <glyph glyph-name="macron" unicode="&#xaf;" horiz-adv-x="786" 
d="M35 1205v187h703v-187h-703z" />
    <glyph glyph-name="degree" unicode="&#xb0;" horiz-adv-x="948" 
d="M467 1001q-97 0 -172.5 43t-118.5 118.5t-43 173.5t43 174t118.5 119.5t172.5 43.5q96 0 171.5 -43.5t119.5 -119.5t44 -174t-44 -173.5t-119.5 -118.5t-171.5 -43zM465 1165q74 0 117.5 47.5t43.5 121.5t-43.5 121t-119.5 47q-73 0 -117 -47t-43 -121q2 -74 45 -121.5
t117 -47.5z" />
    <glyph glyph-name="plusminus" unicode="&#xb1;" horiz-adv-x="1177" 
d="M116 71v212h945v-211zM696 1004l365 1v-213l-365 -1v-364h-213v364h-367v213h367v367h213v-367z" />
    <glyph glyph-name="uni00B2" unicode="&#xb2;" horiz-adv-x="784" 
d="M59 747v92v46q0 81 34 137t88.5 95.5t115 70t114.5 59t88.5 63t34.5 83.5q0 54 -38 88t-102 34q-66 0 -114.5 -39t-58.5 -120h-179q0 88 40 158.5t119 112.5t198 42q153 0 241.5 -75.5t88.5 -199.5q0 -80 -33.5 -134.5t-86 -91.5t-112 -64.5t-112 -53.5t-86 -58.5
t-33.5 -79.5v-7h462v-158h-669z" />
    <glyph glyph-name="uni00B3" unicode="&#xb3;" horiz-adv-x="850" 
d="M409 736q-165 1 -255.5 80t-91.5 216h179q13 -77 60 -111t110 -34q84 0 131.5 35t47.5 91q0 55 -46.5 90t-126.5 37l-87 3v149l79 4q48 2 84 18t56 42.5t20 61.5q0 49 -44.5 78t-113.5 29q-43 0 -79.5 -14.5t-59.5 -47t-26 -87.5h-179q0 97 45.5 162.5t124.5 98.5t177 33
q102 0 181.5 -26.5t125.5 -80t46 -137.5q0 -67 -38.5 -118t-124.5 -81q74 -21 129 -74t55 -146q0 -90 -51 -150.5t-137 -90.5t-191 -30z" />
    <glyph glyph-name="acute" unicode="&#xb4;" horiz-adv-x="528" 
d="M10 1155l206 291h301l-297 -291h-210z" />
    <glyph glyph-name="uni00B5" unicode="&#xb5;" horiz-adv-x="1208" 
d="M112 -330v1390h299v-659q0 -41 21.5 -73t59 -50t85.5 -18q66 0 118 37.5t85 101.5v661h303l-5 -1060h-292v164q-52 -52 -99 -80t-101 -37q-45 -6 -89.5 -1.5t-85.5 24.5v-400h-299z" />
    <glyph glyph-name="paragraph" unicode="&#xb6;" horiz-adv-x="1198" 
d="M486 -166v764q-113 8 -206.5 59t-148.5 141.5t-55 218.5q0 117 53 214.5t157 156t255 58.5h545v-165h-125v-1447h-179v1447h-116v-1447h-180z" />
    <glyph glyph-name="periodcentered" unicode="&#xb7;" horiz-adv-x="518" 
d="M99 585v287h299v-287h-299z" />
    <glyph glyph-name="cedilla" unicode="&#xb8;" horiz-adv-x="546" 
d="M260 -425q-63 0 -121.5 12t-108.5 42l40 98q31 -19 70.5 -34t83.5 -15q48 0 74 16.5t26 45.5q0 39 -38 60t-132 22q-12 0 -16.5 3.5t0.5 15.5l73 169h130l-45 -117q76 -2 120 -26t63.5 -59.5t19.5 -70.5q0 -51 -33 -87.5t-87.5 -55.5t-118.5 -19z" />
    <glyph glyph-name="uni00B9" unicode="&#xb9;" horiz-adv-x="513" 
d="M204 744v679h-162v106q116 0 167.5 32.5t58.5 92.5h126v-910h-190z" />
    <glyph glyph-name="ordmasculine" unicode="&#xba;" horiz-adv-x="806" 
d="M403 795q-99 0 -173 42.5t-114 117.5t-40 172q0 101 42 177t116 118.5t169 42.5q99 0 172.5 -43t114.5 -119.5t41 -175.5q0 -97 -41 -172t-114.5 -117.5t-172.5 -42.5zM403 923q68 0 101 53t33 156t-33 155.5t-101 52.5q-67 0 -100 -52.5t-33 -155.5t33 -156t100 -53z
" />
    <glyph glyph-name="guillemotright" unicode="&#xbb;" horiz-adv-x="1022" 
d="M502 129l164 373l-165 389h157l236 -389l-236 -373h-156zM123 129l162 373l-163 389h155l236 -389l-236 -373h-154z" />
    <glyph glyph-name="onequarter" unicode="&#xbc;" horiz-adv-x="1662" 
d="M204 536v679h-162v106q116 0 167.5 32.5t58.5 92.5h126v-910h-190zM399 -8l-173 3l975 1467h170zM1300 2l1 201h-417v152l413 557h183v-553h140v-156h-140v-201h-180zM1057 359h244v326z" />
    <glyph glyph-name="onehalf" unicode="&#xbd;" horiz-adv-x="1803" 
d="M204 536v679h-162v106q116 0 167.5 32.5t58.5 92.5h126v-910h-190zM399 -8l-173 3l975 1467h170zM1078 -1v92v46q0 81 34 137t88.5 95.5t115 70t114.5 59t88.5 63t34.5 83.5q0 54 -38 88t-102 34q-66 0 -114.5 -39t-58.5 -120h-179q0 88 40 158.5t119 112.5t198 42
q153 0 241.5 -75.5t88.5 -199.5q0 -80 -33.5 -134.5t-86 -91.5t-112 -64.5t-112 -53.5t-86 -58.5t-33.5 -79.5v-7h462v-158h-669z" />
    <glyph glyph-name="threequarters" unicode="&#xbe;" horiz-adv-x="1919" 
d="M409 526q-165 1 -255.5 80t-91.5 216h179q13 -77 60 -111t110 -34q84 0 131.5 35t47.5 91q0 55 -46.5 90t-126.5 37l-87 3v149l79 4q48 2 84 18t56 42.5t20 61.5q0 49 -44.5 78t-113.5 29q-43 0 -79.5 -14.5t-59.5 -47t-26 -87.5h-179q0 97 45.5 162.5t124.5 98.5t177 33
q102 0 181.5 -26.5t125.5 -80t46 -137.5q0 -67 -38.5 -118t-124.5 -81q74 -21 129 -74t55 -146q0 -90 -51 -150.5t-137 -90.5t-191 -30zM655 -8l-173 3l975 1467h170zM1557 2l1 201h-417v152l413 557h183v-553h140v-156h-140v-201h-180zM1314 359h244v326z" />
    <glyph glyph-name="questiondown" unicode="&#xbf;" horiz-adv-x="1087" 
d="M542 -342q-157 0 -263 46t-159 123.5t-53 172.5q0 82 28 138.5t71.5 99.5t93 79.5t93 75t71 87t27.5 115.5h236q0 -83 -23.5 -145t-61.5 -109t-80.5 -85t-80 -74.5t-61.5 -76t-24 -90.5q0 -66 54 -108t135 -42q54 0 105 23t91.5 64t61.5 95l249 -59q-64 -158 -195 -244
t-315 -86zM411 722v312h320v-312h-320z" />
    <glyph glyph-name="Agrave" unicode="&#xc0;" horiz-adv-x="1453" 
d="M55 0l517 1446h309l517 -1446h-291l-118 335h-521l-120 -335h-293zM534 590h384l-191 575zM619 1567l-296 291h301l206 -291h-211z" />
    <glyph glyph-name="Aacute" unicode="&#xc1;" horiz-adv-x="1453" 
d="M55 0l517 1446h309l517 -1446h-291l-118 335h-521l-120 -335h-293zM534 590h384l-191 575zM618 1567l206 291h301l-297 -291h-210z" />
    <glyph glyph-name="Acircumflex" unicode="&#xc2;" horiz-adv-x="1453" 
d="M55 0l517 1446h309l517 -1446h-291l-118 335h-521l-120 -335h-293zM534 590h384l-191 575zM361 1567l264 259h202l257 -259h-228l-132 140l-146 -140h-217z" />
    <glyph glyph-name="Atilde" unicode="&#xc3;" horiz-adv-x="1453" 
d="M55 0l517 1446h309l517 -1446h-291l-118 335h-521l-120 -335h-293zM534 590h384l-191 575zM432 1603l-45 153q36 37 80 64t112 27q56 0 106.5 -15t97 -30.5t91.5 -15.5q53 0 94 22.5t73 46.5l36 -173q-31 -25 -83 -47.5t-119 -22.5q-56 0 -101.5 14t-89.5 27.5t-95 13.5
t-84.5 -15.5t-72.5 -48.5z" />
    <glyph glyph-name="Adieresis" unicode="&#xc4;" horiz-adv-x="1453" 
d="M55 0l517 1446h309l517 -1446h-291l-118 335h-521l-120 -335h-293zM534 590h384l-191 575zM822 1620l3 238h273l-2 -238h-274zM356 1620l3 238h273l-2 -238h-274z" />
    <glyph glyph-name="Aring" unicode="&#xc5;" horiz-adv-x="1453" 
d="M55 0l517 1446h309l517 -1446h-291l-118 335h-521l-120 -335h-293zM534 590h384l-191 575zM727 1547q-91 0 -154 64t-63 157q0 88 64 149t153 61q60 0 109.5 -28.5t79 -77t29.5 -108.5q0 -91 -63.5 -154t-154.5 -63zM725 1661q42 0 70.5 31t28.5 71q0 43 -28.5 71
t-70.5 28q-41 0 -71.5 -28t-30.5 -71q0 -40 30.5 -71t71.5 -31z" />
    <glyph glyph-name="AE" unicode="&#xc6;" horiz-adv-x="2080" 
d="M0 0l774 1446h1181l-1 -243h-685v-355h593v-240h-593v-364h707v-244h-1039v338h-466l-178 -338h-293zM581 590h356v665z" />
    <glyph glyph-name="Ccedilla" unicode="&#xc7;" horiz-adv-x="1436" 
d="M744 -425q-63 0 -121.5 12t-108.5 42l40 98q31 -19 70.5 -34t83.5 -15q48 0 74 16.5t26 45.5q0 39 -38 60t-132 22q-12 0 -16.5 3.5t0.5 15.5l73 169h130l-45 -117q76 -2 120 -26t63.5 -59.5t19.5 -70.5q0 -51 -33.5 -87.5t-87.5 -55.5t-118 -19zM751 -20q-202 0 -349 94
t-226.5 264t-79.5 397q0 228 79 391.5t226 251.5t350 88q163 0 290.5 -65.5t206 -178.5t92.5 -255h-306q-14 75 -51 133.5t-97 92t-144 33.5q-101 0 -174 -49t-112 -158t-39 -288q0 -270 86.5 -390.5t238.5 -120.5q84 0 144 38.5t97 102t51 139.5h306q-13 -103 -50 -196.5
t-105 -166.5t-175 -115t-259 -42z" />
    <glyph glyph-name="Egrave" unicode="&#xc8;" horiz-adv-x="1269" 
d="M162 0v1446h993l-1 -246h-699v-351h607v-241h-609v-359l712 -1v-248h-1003zM552 1567l-296 291h301l206 -291h-211z" />
    <glyph glyph-name="Eacute" unicode="&#xc9;" horiz-adv-x="1269" 
d="M162 0v1446h993l-1 -246h-699v-351h607v-241h-609v-359l712 -1v-248h-1003zM551 1567l206 291h301l-297 -291h-210z" />
    <glyph glyph-name="Ecircumflex" unicode="&#xca;" horiz-adv-x="1269" 
d="M162 0v1446h993l-1 -246h-699v-351h607v-241h-609v-359l712 -1v-248h-1003zM296 1567l264 259h202l257 -259h-228l-132 140l-146 -140h-217z" />
    <glyph glyph-name="Edieresis" unicode="&#xcb;" horiz-adv-x="1269" 
d="M162 0v1446h993l-1 -246h-699v-351h607v-241h-609v-359l712 -1v-248h-1003zM755 1620l3 238h273l-2 -238h-274zM289 1620l3 238h273l-2 -238h-274z" />
    <glyph glyph-name="Igrave" unicode="&#xcc;" horiz-adv-x="615" 
d="M162 0v1446h291v-1446h-291zM201 1567l-296 291h301l206 -291h-211z" />
    <glyph glyph-name="Iacute" unicode="&#xcd;" horiz-adv-x="615" 
d="M162 0v1446h291v-1446h-291zM199 1567l206 291h301l-297 -291h-210z" />
    <glyph glyph-name="Icircumflex" unicode="&#xce;" horiz-adv-x="615" 
d="M162 0v1446h291v-1446h-291zM-56 1567l264 259h202l257 -259h-228l-132 140l-146 -140h-217z" />
    <glyph glyph-name="Idieresis" unicode="&#xcf;" horiz-adv-x="615" 
d="M162 0v1446h291v-1446h-291zM404 1620l3 238h273l-2 -238h-274zM-62 1620l3 238h273l-2 -238h-274z" />
    <glyph glyph-name="Eth" unicode="&#xd0;" horiz-adv-x="1498" 
d="M70 612v213h734v-213h-734zM219 0v1446h62.5h119t137 -0.5t114.5 -1.5q263 -6 428.5 -94t243.5 -246t78 -374q0 -225 -82 -388.5t-250.5 -252.5t-427.5 -89h-423zM514 236h134q124 0 225.5 48t162 157t60.5 291q0 169 -53.5 274.5t-153.5 154.5t-237 49h-138v-974z" />
    <glyph glyph-name="Ntilde" unicode="&#xd1;" horiz-adv-x="1564" 
d="M162 0v1446h289l660 -957v957h292v-1446h-263l-687 995v-995h-291zM487 1603l-45 153q36 37 80 64t112 27q56 0 106.5 -15t97 -30.5t91.5 -15.5q53 0 94 22.5t73 46.5l36 -173q-31 -25 -83 -47.5t-119 -22.5q-56 0 -101.5 14t-89.5 27.5t-95 13.5t-84.5 -15.5
t-72.5 -48.5z" />
    <glyph glyph-name="Ograve" unicode="&#xd2;" horiz-adv-x="1521" 
d="M763 -20q-205 0 -354.5 89.5t-231 255t-81.5 395.5q0 231 82.5 398t232.5 257.5t352 90.5q201 0 350 -90t230.5 -257t81.5 -399q0 -229 -80.5 -395t-229.5 -255.5t-352 -89.5zM763 220q106 0 183.5 50.5t119.5 160t42 285.5q0 181 -42.5 293t-120 164.5t-182.5 52.5
t-183 -52.5t-121 -165t-43 -292.5q0 -177 43 -286t121 -159.5t183 -50.5zM654 1567l-296 291h301l206 -291h-211z" />
    <glyph glyph-name="Oacute" unicode="&#xd3;" horiz-adv-x="1521" 
d="M763 -20q-205 0 -354.5 89.5t-231 255t-81.5 395.5q0 231 82.5 398t232.5 257.5t352 90.5q201 0 350 -90t230.5 -257t81.5 -399q0 -229 -80.5 -395t-229.5 -255.5t-352 -89.5zM763 220q106 0 183.5 50.5t119.5 160t42 285.5q0 181 -42.5 293t-120 164.5t-182.5 52.5
t-183 -52.5t-121 -165t-43 -292.5q0 -177 43 -286t121 -159.5t183 -50.5zM653 1567l206 291h301l-297 -291h-210z" />
    <glyph glyph-name="Ocircumflex" unicode="&#xd4;" horiz-adv-x="1521" 
d="M763 -20q-205 0 -354.5 89.5t-231 255t-81.5 395.5q0 231 82.5 398t232.5 257.5t352 90.5q201 0 350 -90t230.5 -257t81.5 -399q0 -229 -80.5 -395t-229.5 -255.5t-352 -89.5zM763 220q106 0 183.5 50.5t119.5 160t42 285.5q0 181 -42.5 293t-120 164.5t-182.5 52.5
t-183 -52.5t-121 -165t-43 -292.5q0 -177 43 -286t121 -159.5t183 -50.5zM398 1567l264 259h202l257 -259h-228l-132 140l-146 -140h-217z" />
    <glyph glyph-name="Otilde" unicode="&#xd5;" horiz-adv-x="1521" 
d="M763 -20q-205 0 -354.5 89.5t-231 255t-81.5 395.5q0 231 82.5 398t232.5 257.5t352 90.5q201 0 350 -90t230.5 -257t81.5 -399q0 -229 -80.5 -395t-229.5 -255.5t-352 -89.5zM763 220q106 0 183.5 50.5t119.5 160t42 285.5q0 181 -42.5 293t-120 164.5t-182.5 52.5
t-183 -52.5t-121 -165t-43 -292.5q0 -177 43 -286t121 -159.5t183 -50.5zM467 1603l-45 153q36 37 80 64t112 27q56 0 106.5 -15t97 -30.5t91.5 -15.5q53 0 94 22.5t73 46.5l36 -173q-31 -25 -83 -47.5t-119 -22.5q-56 0 -101.5 14t-89.5 27.5t-95 13.5t-84.5 -15.5
t-72.5 -48.5z" />
    <glyph glyph-name="Odieresis" unicode="&#xd6;" horiz-adv-x="1521" 
d="M763 -20q-205 0 -354.5 89.5t-231 255t-81.5 395.5q0 231 82.5 398t232.5 257.5t352 90.5q201 0 350 -90t230.5 -257t81.5 -399q0 -229 -80.5 -395t-229.5 -255.5t-352 -89.5zM763 220q106 0 183.5 50.5t119.5 160t42 285.5q0 181 -42.5 293t-120 164.5t-182.5 52.5
t-183 -52.5t-121 -165t-43 -292.5q0 -177 43 -286t121 -159.5t183 -50.5zM857 1620l3 238h273l-2 -238h-274zM391 1620l3 238h273l-2 -238h-274z" />
    <glyph glyph-name="multiply" unicode="&#xd7;" horiz-adv-x="1153" 
d="M267 269l-149 151l767 768l151 -151zM883 269l-767 767l149 151l769 -767z" />
    <glyph glyph-name="Oslash" unicode="&#xd8;" horiz-adv-x="1552" 
d="M172 -27l-129 131l167 172q-52 87 -79 198.5t-27 244.5q0 231 82 398.5t231.5 258t352.5 90.5q136 0 247.5 -41t195.5 -120l162 166l127 -129l-174 -182q51 -87 78 -198t27 -242q0 -229 -81 -395t-230 -255.5t-353 -89.5q-135 0 -246 40t-193 113zM771 215q134 0 208 86
t89 269q8 79 6 159.5t-14 167.5l-531 -564q77 -118 242 -118zM476 538l534 566q-39 67 -98.5 98.5t-141.5 31.5q-139 0 -215 -96t-91 -298q-6 -75 -2.5 -150.5t14.5 -151.5z" />
    <glyph glyph-name="Ugrave" unicode="&#xd9;" horiz-adv-x="1448" 
d="M740 -20q-211 0 -338 70.5t-183.5 200.5t-56.5 310v885h297v-907q0 -162 78 -236.5t203 -74.5q83 0 147 32.5t100.5 101t36.5 177.5v907h295v-895q0 -175 -57 -303.5t-184.5 -198t-337.5 -69.5zM633 1567l-296 291h301l206 -291h-211z" />
    <glyph glyph-name="Uacute" unicode="&#xda;" horiz-adv-x="1448" 
d="M740 -20q-211 0 -338 70.5t-183.5 200.5t-56.5 310v885h297v-907q0 -162 78 -236.5t203 -74.5q83 0 147 32.5t100.5 101t36.5 177.5v907h295v-895q0 -175 -57 -303.5t-184.5 -198t-337.5 -69.5zM632 1567l206 291h301l-297 -291h-210z" />
    <glyph glyph-name="Ucircumflex" unicode="&#xdb;" horiz-adv-x="1448" 
d="M740 -20q-211 0 -338 70.5t-183.5 200.5t-56.5 310v885h297v-907q0 -162 78 -236.5t203 -74.5q83 0 147 32.5t100.5 101t36.5 177.5v907h295v-895q0 -175 -57 -303.5t-184.5 -198t-337.5 -69.5zM377 1567l264 259h202l257 -259h-228l-132 140l-146 -140h-217z" />
    <glyph glyph-name="Udieresis" unicode="&#xdc;" horiz-adv-x="1448" 
d="M740 -20q-211 0 -338 70.5t-183.5 200.5t-56.5 310v885h297v-907q0 -162 78 -236.5t203 -74.5q83 0 147 32.5t100.5 101t36.5 177.5v907h295v-895q0 -175 -57 -303.5t-184.5 -198t-337.5 -69.5zM836 1620l3 238h273l-2 -238h-274zM370 1620l3 238h273l-2 -238h-274z" />
    <glyph glyph-name="Yacute" unicode="&#xdd;" horiz-adv-x="1335" 
d="M521 0v609l-502 837h316l333 -586l329 586h319l-503 -838v-608h-292zM592 1568l206 291h301l-297 -291h-210z" />
    <glyph glyph-name="Thorn" unicode="&#xde;" horiz-adv-x="1361" 
d="M162 0v1446h294v-277h294q161 0 286 -47.5t196 -143t71 -241.5q0 -143 -71 -240t-195 -147t-283 -50h-298v-300h-294zM456 541h285q78 0 135.5 19t89.5 62.5t32 116.5q0 69 -32 111t-90.5 60.5t-138.5 18.5h-281v-388z" />
    <glyph glyph-name="germandbls" unicode="&#xdf;" horiz-adv-x="1254" 
d="M754 -20q-82 0 -151 18.5t-117 48.5l87 180q33 -20 72.5 -39.5t98.5 -19.5q74 0 122.5 35t48.5 103q0 48 -24.5 77t-68 50.5t-101.5 43.5q-57 24 -106 57t-79.5 82t-30.5 120q0 76 37 127t95 94q33 27 63.5 52.5t51 55t20.5 70.5q0 53 -40 87.5t-117 34.5
q-94 0 -148 -57.5t-54 -155.5v-1044h-286l-2 989q2 90 30.5 172.5t88 146.5t154.5 101t231 37q135 0 225.5 -36.5t136 -103.5t45.5 -156q0 -72 -29 -123.5t-87 -90.5t-144 -76q-30 -16 -43.5 -27t-13.5 -29q0 -19 13 -28.5t45 -19.5q71 -30 142 -63.5t129.5 -79.5
t93.5 -112.5t35 -163.5q0 -117 -53.5 -196.5t-148.5 -120t-221 -40.5z" />
    <glyph glyph-name="agrave" unicode="&#xe0;" horiz-adv-x="1133" 
d="M432 -20q-98 0 -177.5 37t-125.5 107.5t-46 171.5q0 170 127 258.5t401 91.5l130 2v62q0 71 -41.5 109.5t-129.5 37.5q-63 -1 -120.5 -30t-79.5 -101h-243q6 112 65.5 184.5t160.5 108t231 35.5q158 0 254 -39.5t139.5 -113t43.5 -174.5v-727h-244l-24 178
q-53 -112 -132.5 -155t-188.5 -43zM531 172q39 0 76.5 14.5t67.5 39t47.5 55.5t18.5 64v153l-105 -2q-73 -1 -136 -17.5t-101.5 -53.5t-38.5 -100q0 -72 49.5 -112.5t121.5 -40.5zM479 1155l-296 291h301l206 -291h-211z" />
    <glyph glyph-name="aacute" unicode="&#xe1;" horiz-adv-x="1133" 
d="M432 -20q-98 0 -177.5 37t-125.5 107.5t-46 171.5q0 170 127 258.5t401 91.5l130 2v62q0 71 -41.5 109.5t-129.5 37.5q-63 -1 -120.5 -30t-79.5 -101h-243q6 112 65.5 184.5t160.5 108t231 35.5q158 0 254 -39.5t139.5 -113t43.5 -174.5v-727h-244l-24 178
q-53 -112 -132.5 -155t-188.5 -43zM531 172q39 0 76.5 14.5t67.5 39t47.5 55.5t18.5 64v153l-105 -2q-73 -1 -136 -17.5t-101.5 -53.5t-38.5 -100q0 -72 49.5 -112.5t121.5 -40.5zM477 1155l206 291h301l-297 -291h-210z" />
    <glyph glyph-name="acircumflex" unicode="&#xe2;" horiz-adv-x="1133" 
d="M432 -20q-98 0 -177.5 37t-125.5 107.5t-46 171.5q0 170 127 258.5t401 91.5l130 2v62q0 71 -41.5 109.5t-129.5 37.5q-63 -1 -120.5 -30t-79.5 -101h-243q6 112 65.5 184.5t160.5 108t231 35.5q158 0 254 -39.5t139.5 -113t43.5 -174.5v-727h-244l-24 178
q-53 -112 -132.5 -155t-188.5 -43zM531 172q39 0 76.5 14.5t67.5 39t47.5 55.5t18.5 64v153l-105 -2q-73 -1 -136 -17.5t-101.5 -53.5t-38.5 -100q0 -72 49.5 -112.5t121.5 -40.5zM222 1155l264 259h202l257 -259h-228l-132 140l-146 -140h-217z" />
    <glyph glyph-name="atilde" unicode="&#xe3;" horiz-adv-x="1133" 
d="M432 -20q-98 0 -177.5 37t-125.5 107.5t-46 171.5q0 170 127 258.5t401 91.5l130 2v62q0 71 -41.5 109.5t-129.5 37.5q-63 -1 -120.5 -30t-79.5 -101h-243q6 112 65.5 184.5t160.5 108t231 35.5q158 0 254 -39.5t139.5 -113t43.5 -174.5v-727h-244l-24 178
q-53 -112 -132.5 -155t-188.5 -43zM531 172q39 0 76.5 14.5t67.5 39t47.5 55.5t18.5 64v153l-105 -2q-73 -1 -136 -17.5t-101.5 -53.5t-38.5 -100q0 -72 49.5 -112.5t121.5 -40.5zM292 1191l-45 153q36 37 80 64t112 27q56 0 106.5 -15t97 -30.5t91.5 -15.5q53 0 94 22.5
t73 46.5l36 -173q-31 -25 -83 -47.5t-119 -22.5q-56 0 -101.5 14t-89.5 27.5t-95 13.5t-84.5 -15.5t-72.5 -48.5z" />
    <glyph glyph-name="adieresis" unicode="&#xe4;" horiz-adv-x="1133" 
d="M432 -20q-98 0 -177.5 37t-125.5 107.5t-46 171.5q0 170 127 258.5t401 91.5l130 2v62q0 71 -41.5 109.5t-129.5 37.5q-63 -1 -120.5 -30t-79.5 -101h-243q6 112 65.5 184.5t160.5 108t231 35.5q158 0 254 -39.5t139.5 -113t43.5 -174.5v-727h-244l-24 178
q-53 -112 -132.5 -155t-188.5 -43zM531 172q39 0 76.5 14.5t67.5 39t47.5 55.5t18.5 64v153l-105 -2q-73 -1 -136 -17.5t-101.5 -53.5t-38.5 -100q0 -72 49.5 -112.5t121.5 -40.5zM682 1208l3 238h273l-2 -238h-274zM216 1208l3 238h273l-2 -238h-274z" />
    <glyph glyph-name="aring" unicode="&#xe5;" horiz-adv-x="1133" 
d="M432 -20q-98 0 -177.5 37t-125.5 107.5t-46 171.5q0 170 127 258.5t401 91.5l130 2v62q0 71 -41.5 109.5t-129.5 37.5q-63 -1 -120.5 -30t-79.5 -101h-243q6 112 65.5 184.5t160.5 108t231 35.5q158 0 254 -39.5t139.5 -113t43.5 -174.5v-727h-244l-24 178
q-53 -112 -132.5 -155t-188.5 -43zM531 172q39 0 76.5 14.5t67.5 39t47.5 55.5t18.5 64v153l-105 -2q-73 -1 -136 -17.5t-101.5 -53.5t-38.5 -100q0 -72 49.5 -112.5t121.5 -40.5zM587 1135q-91 0 -154 64t-63 157q0 88 64 149t153 61q60 0 109.5 -28.5t79 -77t29.5 -108.5
q0 -91 -63.5 -154t-154.5 -63zM585 1249q42 0 70.5 31t28.5 71q0 43 -28.5 71t-70.5 28q-41 0 -71.5 -28t-30.5 -71q0 -40 30.5 -71t71.5 -31z" />
    <glyph glyph-name="ae" unicode="&#xe6;" horiz-adv-x="1827" 
d="M432 -20q-98 0 -177.5 37t-125.5 107.5t-46 171.5q0 170 127.5 258.5t401.5 91.5l130 2v62q0 73 -45 110.5t-127 36.5q-63 -1 -120.5 -31t-79.5 -100h-243q6 107 65.5 180t161 110.5t230.5 37.5t218 -33t138 -93q58 60 138.5 93t180.5 33q158 0 265.5 -66.5t162 -185
t54.5 -273.5v-79h-694q-1 -79 25 -137.5t75.5 -90t119.5 -31.5q75 0 131.5 32t78.5 105h263q-17 -110 -87.5 -188t-170.5 -119t-208 -41q-143 0 -253.5 57t-176.5 161q-26 -68 -81 -117t-138 -75t-193 -26zM531 172q62 0 108.5 28.5t73 72t27.5 87.5v138l-104 -2
q-73 -1 -135.5 -17.5t-101.5 -53.5t-39 -100q0 -72 49.5 -112.5t121.5 -40.5zM1046 624h422q0 62 -23 114t-69.5 82t-116.5 30q-68 0 -115.5 -32.5t-72.5 -84.5t-25 -109z" />
    <glyph glyph-name="ccedilla" unicode="&#xe7;" horiz-adv-x="1094" 
d="M565 -425q-62 0 -120.5 12t-109.5 42l40 98q31 -19 71 -34t83 -15q48 0 74 16.5t26 45.5q0 39 -38 60t-131 22q-13 0 -17.5 3.5t0.5 15.5l74 169h129l-44 -117q75 -2 119.5 -26t63.5 -59.5t19 -70.5q0 -51 -33 -87.5t-87.5 -55.5t-118.5 -19zM575 -20q-144 0 -257 64
t-177.5 183.5t-64.5 285.5q0 160 62 282t174.5 190.5t262.5 68.5q130 0 224.5 -53t149 -143t62.5 -201h-243q-7 41 -29 81.5t-62 67t-100 26.5q-102 0 -165.5 -78.5t-63.5 -238.5q0 -151 62 -239.5t173 -88.5q59 0 98.5 29t61.5 69.5t28 75.5h237q-7 -107 -62 -193.5
t-149.5 -137t-221.5 -50.5z" />
    <glyph glyph-name="egrave" unicode="&#xe8;" horiz-adv-x="1153" 
d="M600 -20q-154 0 -270.5 64.5t-181.5 182.5t-65 278q0 155 59.5 279.5t171.5 197t271 72.5q158 0 265 -66.5t162 -185t55 -273.5v-79h-695q0 -79 26 -137.5t75.5 -90t119.5 -31.5q75 0 131 32t79 105h263q-18 -110 -88 -188t-170 -119t-208 -41zM372 624h422
q0 62 -23.5 114t-70 82t-116.5 30q-67 0 -114.5 -32.5t-73 -84.5t-24.5 -109zM478 1155l-296 291h301l206 -291h-211z" />
    <glyph glyph-name="eacute" unicode="&#xe9;" horiz-adv-x="1153" 
d="M600 -20q-154 0 -270.5 64.5t-181.5 182.5t-65 278q0 155 59.5 279.5t171.5 197t271 72.5q158 0 265 -66.5t162 -185t55 -273.5v-79h-695q0 -79 26 -137.5t75.5 -90t119.5 -31.5q75 0 131 32t79 105h263q-18 -110 -88 -188t-170 -119t-208 -41zM372 624h422
q0 62 -23.5 114t-70 82t-116.5 30q-67 0 -114.5 -32.5t-73 -84.5t-24.5 -109zM477 1155l206 291h301l-297 -291h-210z" />
    <glyph glyph-name="ecircumflex" unicode="&#xea;" horiz-adv-x="1153" 
d="M600 -20q-154 0 -270.5 64.5t-181.5 182.5t-65 278q0 155 59.5 279.5t171.5 197t271 72.5q158 0 265 -66.5t162 -185t55 -273.5v-79h-695q0 -79 26 -137.5t75.5 -90t119.5 -31.5q75 0 131 32t79 105h263q-18 -110 -88 -188t-170 -119t-208 -41zM372 624h422
q0 62 -23.5 114t-70 82t-116.5 30q-67 0 -114.5 -32.5t-73 -84.5t-24.5 -109zM222 1155l264 259h202l257 -259h-228l-132 140l-146 -140h-217z" />
    <glyph glyph-name="edieresis" unicode="&#xeb;" horiz-adv-x="1153" 
d="M600 -20q-154 0 -270.5 64.5t-181.5 182.5t-65 278q0 155 59.5 279.5t171.5 197t271 72.5q158 0 265 -66.5t162 -185t55 -273.5v-79h-695q0 -79 26 -137.5t75.5 -90t119.5 -31.5q75 0 131 32t79 105h263q-18 -110 -88 -188t-170 -119t-208 -41zM372 624h422
q0 62 -23.5 114t-70 82t-116.5 30q-67 0 -114.5 -32.5t-73 -84.5t-24.5 -109zM681 1208l3 238h273l-2 -238h-274zM215 1208l3 238h273l-2 -238h-274z" />
    <glyph glyph-name="igrave" unicode="&#xec;" horiz-adv-x="529" 
d="M125 0v1034h279v-1034h-279zM173 1155l-219 291h287l130 -289z" />
    <glyph glyph-name="iacute" unicode="&#xed;" horiz-adv-x="529" 
d="M125 0v1034h279v-1034h-279zM358 1155l-198 2l130 289h287z" />
    <glyph glyph-name="icircumflex" unicode="&#xee;" horiz-adv-x="529" 
d="M125 0v1034h279v-1034h-279zM-95 1155l264 259h202l257 -259h-228l-132 140l-146 -140h-217z" />
    <glyph glyph-name="idieresis" unicode="&#xef;" horiz-adv-x="768" 
d="M236 0v1034h279v-1034h-279zM479 1204l3 238h273l-2 -238h-274zM13 1204l3 238h273l-2 -238h-274z" />
    <glyph glyph-name="eth" unicode="&#xf0;" horiz-adv-x="1151" 
d="M570 -20q-150 0 -261 68.5t-172 186t-61 264.5q0 129 38 227.5t104 165.5t152 101t181 34q154 0 249 -82t113 -237l-185 148q-9 101 -51.5 193.5t-102 173t-122.5 145.5t-115 113h235q83 -58 171 -147t163 -207.5t122 -264t47 -314.5q0 -176 -58.5 -303.5t-171 -196
t-275.5 -68.5zM578 197q75 0 122 41.5t69 113t22 159.5q0 142 -52.5 225t-159.5 83q-112 0 -165 -86t-53 -222q0 -86 21.5 -157.5t69 -114t126.5 -42.5zM325 1104l-38 127l691 205l39 -127z" />
    <glyph glyph-name="ntilde" unicode="&#xf1;" horiz-adv-x="1186" 
d="M125 0v1034h287v-146q24 38 62.5 73.5t97.5 58.5t140 23q95 0 177.5 -37t133.5 -116.5t51 -207.5v-682h-292v646q0 84 -50 126t-122 42q-48 0 -92.5 -17t-72.5 -51t-28 -84v-662h-292zM310 1191l-45 153q36 37 80 64t112 27q56 0 106.5 -15t97 -30.5t91.5 -15.5
q53 0 94 22.5t73 46.5l36 -173q-31 -25 -83 -47.5t-119 -22.5q-56 0 -101.5 14t-89.5 27.5t-95 13.5t-84.5 -15.5t-72.5 -48.5z" />
    <glyph glyph-name="ograve" unicode="&#xf2;" horiz-adv-x="1151" 
d="M576 -20q-152 0 -264.5 65t-174 184t-61.5 282t61.5 285t174 190t265.5 68t265 -66.5t173 -188.5t61 -288q0 -156 -59.5 -275.5t-171 -187.5t-269.5 -68zM577 197q77 0 124 45t68 118.5t21 160.5q0 82 -19 155t-66 118t-128 45q-77 0 -124.5 -42.5t-69.5 -115t-22 -160.5
q0 -81 20 -155.5t67 -121.5t129 -47zM468 1155l-296 291h301l206 -291h-211z" />
    <glyph glyph-name="oacute" unicode="&#xf3;" horiz-adv-x="1151" 
d="M576 -20q-152 0 -264.5 65t-174 184t-61.5 282t61.5 285t174 190t265.5 68t265 -66.5t173 -188.5t61 -288q0 -156 -59.5 -275.5t-171 -187.5t-269.5 -68zM577 197q77 0 124 45t68 118.5t21 160.5q0 82 -19 155t-66 118t-128 45q-77 0 -124.5 -42.5t-69.5 -115t-22 -160.5
q0 -81 20 -155.5t67 -121.5t129 -47zM467 1155l206 291h301l-297 -291h-210z" />
    <glyph glyph-name="ocircumflex" unicode="&#xf4;" horiz-adv-x="1151" 
d="M576 -20q-152 0 -264.5 65t-174 184t-61.5 282t61.5 285t174 190t265.5 68t265 -66.5t173 -188.5t61 -288q0 -156 -59.5 -275.5t-171 -187.5t-269.5 -68zM577 197q77 0 124 45t68 118.5t21 160.5q0 82 -19 155t-66 118t-128 45q-77 0 -124.5 -42.5t-69.5 -115t-22 -160.5
q0 -81 20 -155.5t67 -121.5t129 -47zM212 1155l264 259h202l257 -259h-228l-132 140l-146 -140h-217z" />
    <glyph glyph-name="otilde" unicode="&#xf5;" horiz-adv-x="1151" 
d="M576 -20q-152 0 -264.5 65t-174 184t-61.5 282t61.5 285t174 190t265.5 68t265 -66.5t173 -188.5t61 -288q0 -156 -59.5 -275.5t-171 -187.5t-269.5 -68zM577 197q77 0 124 45t68 118.5t21 160.5q0 82 -19 155t-66 118t-128 45q-77 0 -124.5 -42.5t-69.5 -115t-22 -160.5
q0 -81 20 -155.5t67 -121.5t129 -47zM282 1191l-45 153q36 37 80 64t112 27q56 0 106.5 -15t97 -30.5t91.5 -15.5q53 0 94 22.5t73 46.5l36 -173q-31 -25 -83 -47.5t-119 -22.5q-56 0 -101.5 14t-89.5 27.5t-95 13.5t-84.5 -15.5t-72.5 -48.5z" />
    <glyph glyph-name="odieresis" unicode="&#xf6;" horiz-adv-x="1151" 
d="M576 -20q-152 0 -264.5 65t-174 184t-61.5 282t61.5 285t174 190t265.5 68t265 -66.5t173 -188.5t61 -288q0 -156 -59.5 -275.5t-171 -187.5t-269.5 -68zM577 197q77 0 124 45t68 118.5t21 160.5q0 82 -19 155t-66 118t-128 45q-77 0 -124.5 -42.5t-69.5 -115t-22 -160.5
q0 -81 20 -155.5t67 -121.5t129 -47zM671 1208l3 238h273l-2 -238h-274zM205 1208l3 238h273l-2 -238h-274z" />
    <glyph glyph-name="divide" unicode="&#xf7;" horiz-adv-x="1177" 
d="M116 621v213h945v-213h-945zM438 187v293h304v-293h-304zM438 975v293h304v-293h-304z" />
    <glyph glyph-name="oslash" unicode="&#xf8;" horiz-adv-x="1223" 
d="M147 -15l-96 103l1013 958l95 -102zM625 -20q-152 0 -264.5 65t-174 184t-61.5 282t61.5 285t174 190t265.5 68t265 -66.5t173 -188.5t61 -288q0 -156 -59.5 -275.5t-171 -187.5t-269.5 -68zM626 197q77 0 124 45t68.5 118.5t21.5 160.5q0 82 -19.5 155t-66.5 118
t-128 45q-77 0 -124.5 -42.5t-69.5 -115t-22 -160.5q0 -81 20 -155.5t67 -121.5t129 -47z" />
    <glyph glyph-name="ugrave" unicode="&#xf9;" horiz-adv-x="1190" 
d="M506 -20q-72 0 -141.5 22t-126.5 65t-91.5 106t-34.5 146v715h292v-678q0 -72 47 -118t138 -46q86 0 136.5 44.5t50.5 124.5v673h289v-1034h-220l-34 205q-18 -91 -67.5 -139.5t-113 -67t-124.5 -18.5zM483 1155l-296 291h301l206 -291h-211z" />
    <glyph glyph-name="uacute" unicode="&#xfa;" horiz-adv-x="1190" 
d="M506 -20q-72 0 -141.5 22t-126.5 65t-91.5 106t-34.5 146v715h292v-678q0 -72 47 -118t138 -46q86 0 136.5 44.5t50.5 124.5v673h289v-1034h-220l-34 205q-18 -91 -67.5 -139.5t-113 -67t-124.5 -18.5zM482 1155l206 291h301l-297 -291h-210z" />
    <glyph glyph-name="ucircumflex" unicode="&#xfb;" horiz-adv-x="1190" 
d="M506 -20q-72 0 -141.5 22t-126.5 65t-91.5 106t-34.5 146v715h292v-678q0 -72 47 -118t138 -46q86 0 136.5 44.5t50.5 124.5v673h289v-1034h-220l-34 205q-18 -91 -67.5 -139.5t-113 -67t-124.5 -18.5zM227 1155l264 259h202l257 -259h-228l-132 140l-146 -140h-217z" />
    <glyph glyph-name="udieresis" unicode="&#xfc;" horiz-adv-x="1190" 
d="M506 -20q-72 0 -141.5 22t-126.5 65t-91.5 106t-34.5 146v715h292v-678q0 -72 47 -118t138 -46q86 0 136.5 44.5t50.5 124.5v673h289v-1034h-220l-34 205q-18 -91 -67.5 -139.5t-113 -67t-124.5 -18.5zM686 1208l3 238h273l-2 -238h-274zM220 1208l3 238h273l-2 -238
h-274z" />
    <glyph glyph-name="yacute" unicode="&#xfd;" horiz-adv-x="1126" 
d="M287 -330q-106 0 -150 17.5l-44 17.5v186l103 -4q67 -4 108 6.5t62 27.5t30.5 35.5t13.5 29.5l19 57l-402 991h289l248 -674l250 674h286l-419 -1040q-54 -132 -114.5 -202t-130 -96t-149.5 -26zM454 1155l206 291h301l-297 -291h-210z" />
    <glyph glyph-name="thorn" unicode="&#xfe;" horiz-adv-x="1208" 
d="M125 -322v1768h292v-543q33 37 75.5 71.5t100 57t138.5 22.5q113 0 204 -57t144.5 -174.5t53.5 -297.5q0 -187 -55 -307.5t-149.5 -179t-214.5 -58.5q-77 0 -141 24.5t-121 74.5q-21 19 -28 17.5t-7 -28.5v-390h-292zM608 165q69 0 120 36.5t79.5 117t28.5 212.5
q0 126 -28.5 199.5t-78.5 105.5t-117 32q-56 0 -100.5 -23.5t-69.5 -60t-25 -75.5v-444q39 -44 85 -72t106 -28z" />
    <glyph glyph-name="ydieresis" unicode="&#xff;" horiz-adv-x="1126" 
d="M287 -330q-106 0 -150 17.5l-44 17.5v186l103 -4q67 -4 108 6.5t62 27.5t30.5 35.5t13.5 29.5l19 57l-402 991h289l248 -674l250 674h286l-419 -1040q-54 -132 -114.5 -202t-130 -96t-149.5 -26zM659 1208l3 238h273l-2 -238h-274zM193 1208l3 238h273l-2 -238h-274z" />
    <glyph glyph-name="Amacron" unicode="&#x100;" horiz-adv-x="1453" 
d="M55 0l517 1446h309l517 -1446h-291l-118 335h-521l-120 -335h-293zM534 590h384l-191 575zM376 1617v187h703v-187h-703z" />
    <glyph glyph-name="amacron" unicode="&#x101;" horiz-adv-x="1133" 
d="M432 -20q-98 0 -177.5 37t-125.5 107.5t-46 171.5q0 170 127 258.5t401 91.5l130 2v62q0 71 -41.5 109.5t-129.5 37.5q-63 -1 -120.5 -30t-79.5 -101h-243q6 112 65.5 184.5t160.5 108t231 35.5q158 0 254 -39.5t139.5 -113t43.5 -174.5v-727h-244l-24 178
q-53 -112 -132.5 -155t-188.5 -43zM531 172q39 0 76.5 14.5t67.5 39t47.5 55.5t18.5 64v153l-105 -2q-73 -1 -136 -17.5t-101.5 -53.5t-38.5 -100q0 -72 49.5 -112.5t121.5 -40.5zM235 1205v187h703v-187h-703z" />
    <glyph glyph-name="Abreve" unicode="&#x102;" horiz-adv-x="1453" 
d="M55 0l517 1446h309l517 -1446h-291l-118 335h-521l-120 -335h-293zM534 590h384l-191 575zM727 1567q-84 0 -157.5 28.5t-124.5 85.5t-68 141h184q15 -50 58 -81.5t108 -31.5q64 0 107.5 31.5t60.5 81.5h183q-17 -84 -68 -140.5t-124.5 -85.5t-158.5 -29z" />
    <glyph glyph-name="abreve" unicode="&#x103;" horiz-adv-x="1133" 
d="M432 -20q-98 0 -177.5 37t-125.5 107.5t-46 171.5q0 170 127 258.5t401 91.5l130 2v62q0 71 -41.5 109.5t-129.5 37.5q-63 -1 -120.5 -30t-79.5 -101h-243q6 112 65.5 184.5t160.5 108t231 35.5q158 0 254 -39.5t139.5 -113t43.5 -174.5v-727h-244l-24 178
q-53 -112 -132.5 -155t-188.5 -43zM531 172q39 0 76.5 14.5t67.5 39t47.5 55.5t18.5 64v153l-105 -2q-73 -1 -136 -17.5t-101.5 -53.5t-38.5 -100q0 -72 49.5 -112.5t121.5 -40.5zM586 1155q-84 0 -157.5 28.5t-124.5 85.5t-68 141h184q15 -50 58 -81.5t108 -31.5
q64 0 107.5 31.5t60.5 81.5h183q-17 -84 -68 -140.5t-124.5 -85.5t-158.5 -29z" />
    <glyph glyph-name="Aogonek" unicode="&#x104;" horiz-adv-x="1453" 
d="M55 0l517 1446h309l517 -1446h-291l-118 335h-521l-120 -335h-293zM534 590h384l-191 575zM1220 -343q-102 0 -159.5 42t-57.5 122q0 55 37.5 101.5t154.5 85.5l204 -5q-106 -39 -145.5 -72t-39.5 -74q0 -32 17 -48t55 -16q46 0 81 13.5t64 30.5v-132
q-28 -17 -85.5 -32.5t-125.5 -15.5z" />
    <glyph glyph-name="aogonek" unicode="&#x105;" horiz-adv-x="1133" 
d="M432 -20q-98 0 -177.5 37t-125.5 107.5t-46 171.5q0 170 127 258.5t401 91.5l130 2v62q0 71 -41.5 109.5t-129.5 37.5q-63 -1 -120.5 -30t-79.5 -101h-243q6 112 65.5 184.5t160.5 108t231 35.5q158 0 254 -39.5t139.5 -113t43.5 -174.5v-727h-244l-24 178
q-53 -112 -132.5 -155t-188.5 -43zM531 172q39 0 76.5 14.5t67.5 39t47.5 55.5t18.5 64v153l-105 -2q-73 -1 -136 -17.5t-101.5 -53.5t-38.5 -100q0 -72 49.5 -112.5t121.5 -40.5zM833 -335q-102 0 -159.5 42t-57.5 122q0 55 37.5 101.5t154.5 85.5l204 -5
q-106 -39 -145.5 -72t-39.5 -74q0 -32 17 -48t55 -16q46 0 81 13.5t64 30.5v-132q-28 -17 -85.5 -32.5t-125.5 -15.5z" />
    <glyph glyph-name="Cacute" unicode="&#x106;" horiz-adv-x="1436" 
d="M751 -20q-202 0 -349 94t-226.5 264t-79.5 397q0 228 79 391.5t226 251.5t350 88q163 0 290.5 -65.5t206 -178.5t92.5 -255h-306q-14 75 -51 133.5t-97 92t-144 33.5q-101 0 -174 -49t-112 -158t-39 -288q0 -270 86.5 -390.5t238.5 -120.5q84 0 144 38.5t97 102t51 139.5
h306q-13 -103 -50 -196.5t-105 -166.5t-175 -115t-259 -42zM639 1567l206 291h301l-297 -291h-210z" />
    <glyph glyph-name="cacute" unicode="&#x107;" horiz-adv-x="1094" 
d="M575 -20q-144 0 -257 64t-177.5 183.5t-64.5 285.5q0 160 62 282t174.5 190.5t262.5 68.5q130 0 224.5 -53t149 -143t62.5 -201h-243q-7 41 -29 81.5t-62 67t-100 26.5q-102 0 -165.5 -78.5t-63.5 -238.5q0 -151 62 -239.5t173 -88.5q59 0 98.5 29t61.5 69.5t28 75.5h237
q-7 -107 -62 -193.5t-149.5 -137t-221.5 -50.5zM465 1155l206 291h301l-297 -291h-210z" />
    <glyph glyph-name="Ccircumflex" unicode="&#x108;" horiz-adv-x="1436" 
d="M751 -20q-202 0 -349 94t-226.5 264t-79.5 397q0 228 79 391.5t226 251.5t350 88q163 0 290.5 -65.5t206 -178.5t92.5 -255h-306q-14 75 -51 133.5t-97 92t-144 33.5q-101 0 -174 -49t-112 -158t-39 -288q0 -270 86.5 -390.5t238.5 -120.5q84 0 144 38.5t97 102t51 139.5
h306q-13 -103 -50 -196.5t-105 -166.5t-175 -115t-259 -42zM384 1567l264 259h202l257 -259h-228l-132 140l-146 -140h-217z" />
    <glyph glyph-name="ccircumflex" unicode="&#x109;" horiz-adv-x="1094" 
d="M575 -20q-144 0 -257 64t-177.5 183.5t-64.5 285.5q0 160 62 282t174.5 190.5t262.5 68.5q130 0 224.5 -53t149 -143t62.5 -201h-243q-7 41 -29 81.5t-62 67t-100 26.5q-102 0 -165.5 -78.5t-63.5 -238.5q0 -151 62 -239.5t173 -88.5q59 0 98.5 29t61.5 69.5t28 75.5h237
q-7 -107 -62 -193.5t-149.5 -137t-221.5 -50.5zM210 1155l264 259h202l257 -259h-228l-132 140l-146 -140h-217z" />
    <glyph glyph-name="Cdotaccent" unicode="&#x10a;" horiz-adv-x="1436" 
d="M751 -20q-202 0 -349 94t-226.5 264t-79.5 397q0 228 79 391.5t226 251.5t350 88q163 0 290.5 -65.5t206 -178.5t92.5 -255h-306q-14 75 -51 133.5t-97 92t-144 33.5q-101 0 -174 -49t-112 -158t-39 -288q0 -270 86.5 -390.5t238.5 -120.5q84 0 144 38.5t97 102t51 139.5
h306q-13 -103 -50 -196.5t-105 -166.5t-175 -115t-259 -42zM608 1620v238h279v-238h-279z" />
    <glyph glyph-name="cdotaccent" unicode="&#x10b;" horiz-adv-x="1094" 
d="M575 -20q-144 0 -257 64t-177.5 183.5t-64.5 285.5q0 160 62 282t174.5 190.5t262.5 68.5q130 0 224.5 -53t149 -143t62.5 -201h-243q-7 41 -29 81.5t-62 67t-100 26.5q-102 0 -165.5 -78.5t-63.5 -238.5q0 -151 62 -239.5t173 -88.5q59 0 98.5 29t61.5 69.5t28 75.5h237
q-7 -107 -62 -193.5t-149.5 -137t-221.5 -50.5zM434 1208v238h279v-238h-279z" />
    <glyph glyph-name="Ccaron" unicode="&#x10c;" horiz-adv-x="1436" 
d="M751 -20q-202 0 -349 94t-226.5 264t-79.5 397q0 228 79 391.5t226 251.5t350 88q163 0 290.5 -65.5t206 -178.5t92.5 -255h-306q-14 75 -51 133.5t-97 92t-144 33.5q-101 0 -174 -49t-112 -158t-39 -288q0 -270 86.5 -390.5t238.5 -120.5q84 0 144 38.5t97 102t51 139.5
h306q-13 -103 -50 -196.5t-105 -166.5t-175 -115t-259 -42zM647 1567l-263 261h217l146 -150l132 150h228l-257 -261h-203z" />
    <glyph glyph-name="ccaron" unicode="&#x10d;" horiz-adv-x="1094" 
d="M575 -20q-144 0 -257 64t-177.5 183.5t-64.5 285.5q0 160 62 282t174.5 190.5t262.5 68.5q130 0 224.5 -53t149 -143t62.5 -201h-243q-7 41 -29 81.5t-62 67t-100 26.5q-102 0 -165.5 -78.5t-63.5 -238.5q0 -151 62 -239.5t173 -88.5q59 0 98.5 29t61.5 69.5t28 75.5h237
q-7 -107 -62 -193.5t-149.5 -137t-221.5 -50.5zM473 1155l-263 261h217l146 -150l132 150h228l-257 -261h-203z" />
    <glyph glyph-name="Dcaron" unicode="&#x10e;" horiz-adv-x="1440" 
d="M162 0v1446h61.5h119t137 -0.5t114.5 -1.5q263 -6 429 -94t243.5 -246t77.5 -374q0 -225 -82 -388.5t-250.5 -252.5t-427.5 -89h-422zM456 236h134q124 0 225.5 48t162.5 157t61 291q0 169 -54 274.5t-154 154.5t-237 49h-138v-974zM613 1567l-263 261h217l146 -150
l132 150h228l-257 -261h-203z" />
    <glyph glyph-name="dcaron" unicode="&#x10f;" horiz-adv-x="1210" 
d="M516 -20q-208 0 -324 143.5t-116 399.5q0 162 47 281t139 184.5t225 65.5q56 0 104.5 -12.5t88.5 -34.5t70 -51t49 -62v592h293v-1486h-212l-33 212q-15 -43 -39.5 -84t-63.5 -74.5t-95.5 -53.5t-132.5 -20zM580 190q110 0 164.5 77t54.5 260q-1 106 -25 176t-71.5 104.5
t-120.5 34.5q-95 0 -158 -72.5t-63 -242.5q0 -173 59 -255t160 -82zM1196 1050l82 202l-71 12v222h199v-233l-86 -203h-124z" />
    <glyph glyph-name="Dcroat" unicode="&#x110;" horiz-adv-x="1498" 
d="M70 612v213h734v-213h-734zM219 0v1446h62.5h119t137 -0.5t114.5 -1.5q263 -6 428.5 -94t243.5 -246t78 -374q0 -225 -82 -388.5t-250.5 -252.5t-427.5 -89h-423zM514 236h134q124 0 225.5 48t162 157t60.5 291q0 169 -53.5 274.5t-153.5 154.5t-237 49h-138v-974z" />
    <glyph glyph-name="dcroat" unicode="&#x111;" horiz-adv-x="1278" 
d="M545 1160v164h673v-164h-673zM516 -20q-208 0 -324 143.5t-116 399.5q0 162 47 281t139 184.5t225 65.5q56 0 104.5 -12.5t88.5 -34.5t70 -51t49 -62v592h293v-1486h-212l-33 212q-15 -43 -39.5 -84t-63.5 -74.5t-95.5 -53.5t-132.5 -20zM580 190q110 0 164.5 77
t54.5 260q-1 106 -25 176t-71.5 104.5t-120.5 34.5q-95 0 -158 -72.5t-63 -242.5q0 -173 59 -255t160 -82z" />
    <glyph glyph-name="Emacron" unicode="&#x112;" horiz-adv-x="1269" 
d="M162 0v1446h993l-1 -246h-699v-351h607v-241h-609v-359l712 -1v-248h-1003zM309 1617v187h703v-187h-703z" />
    <glyph glyph-name="emacron" unicode="&#x113;" horiz-adv-x="1153" 
d="M600 -20q-154 0 -270.5 64.5t-181.5 182.5t-65 278q0 155 59.5 279.5t171.5 197t271 72.5q158 0 265 -66.5t162 -185t55 -273.5v-79h-695q0 -79 26 -137.5t75.5 -90t119.5 -31.5q75 0 131 32t79 105h263q-18 -110 -88 -188t-170 -119t-208 -41zM372 624h422
q0 62 -23.5 114t-70 82t-116.5 30q-67 0 -114.5 -32.5t-73 -84.5t-24.5 -109zM235 1205v187h703v-187h-703z" />
    <glyph glyph-name="Ebreve" unicode="&#x114;" horiz-adv-x="1269" 
d="M162 0v1446h993l-1 -246h-699v-351h607v-241h-609v-359l712 -1v-248h-1003zM659 1567q-84 0 -157.5 28.5t-124.5 85.5t-68 141h184q15 -50 58 -81.5t108 -31.5q64 0 107.5 31.5t60.5 81.5h183q-17 -84 -68 -140.5t-124.5 -85.5t-158.5 -29z" />
    <glyph glyph-name="ebreve" unicode="&#x115;" horiz-adv-x="1153" 
d="M600 -20q-154 0 -270.5 64.5t-181.5 182.5t-65 278q0 155 59.5 279.5t171.5 197t271 72.5q158 0 265 -66.5t162 -185t55 -273.5v-79h-695q0 -79 26 -137.5t75.5 -90t119.5 -31.5q75 0 131 32t79 105h263q-18 -110 -88 -188t-170 -119t-208 -41zM372 624h422
q0 62 -23.5 114t-70 82t-116.5 30q-67 0 -114.5 -32.5t-73 -84.5t-24.5 -109zM586 1155q-84 0 -157.5 28.5t-124.5 85.5t-68 141h184q15 -50 58 -81.5t108 -31.5q64 0 107.5 31.5t60.5 81.5h183q-17 -84 -68 -140.5t-124.5 -85.5t-158.5 -29z" />
    <glyph glyph-name="Edotaccent" unicode="&#x116;" horiz-adv-x="1269" 
d="M162 0v1446h993l-1 -246h-699v-351h607v-241h-609v-359l712 -1v-248h-1003zM520 1620v238h279v-238h-279z" />
    <glyph glyph-name="edotaccent" unicode="&#x117;" horiz-adv-x="1153" 
d="M600 -20q-154 0 -270.5 64.5t-181.5 182.5t-65 278q0 155 59.5 279.5t171.5 197t271 72.5q158 0 265 -66.5t162 -185t55 -273.5v-79h-695q0 -79 26 -137.5t75.5 -90t119.5 -31.5q75 0 131 32t79 105h263q-18 -110 -88 -188t-170 -119t-208 -41zM372 624h422
q0 62 -23.5 114t-70 82t-116.5 30q-67 0 -114.5 -32.5t-73 -84.5t-24.5 -109zM446 1208v238h279v-238h-279z" />
    <glyph glyph-name="Eogonek" unicode="&#x118;" horiz-adv-x="1269" 
d="M162 0v1446h993l-1 -246h-699v-351h607v-241h-609v-359l712 -1v-248h-1003zM1016 -337q-102 0 -159.5 42t-57.5 122q0 55 37.5 101.5t154.5 85.5l204 -5q-106 -39 -145.5 -72t-39.5 -74q0 -32 17 -48t55 -16q46 0 81 13.5t64 30.5v-132q-28 -17 -85.5 -32.5t-125.5 -15.5
z" />
    <glyph glyph-name="eogonek" unicode="&#x119;" horiz-adv-x="1153" 
d="M675 -312q-101 0 -159 42t-58 123q0 36 15 69t59 62q-135 14 -236 81t-157 179t-56 261q0 155 59.5 279.5t171.5 197t271 72.5q158 0 265 -66.5t162 -185t55 -273.5v-79h-695q0 -79 26 -137.5t75.5 -90t119.5 -31.5q75 0 131 32t79 105h263q-17 -103 -78 -174t-165 -126
q-77 -40 -115.5 -71t-38.5 -69q0 -31 17.5 -47.5t54.5 -16.5q46 0 81 13.5t64 30.5v-132q-28 -17 -85.5 -32.5t-125.5 -15.5zM372 624h422q0 62 -23.5 114t-70 82t-116.5 30q-67 0 -114.5 -32.5t-73 -84.5t-24.5 -109z" />
    <glyph glyph-name="Ecaron" unicode="&#x11a;" horiz-adv-x="1269" 
d="M162 0v1446h993l-1 -246h-699v-351h607v-241h-609v-359l712 -1v-248h-1003zM559 1567l-263 261h217l146 -150l132 150h228l-257 -261h-203z" />
    <glyph glyph-name="ecaron" unicode="&#x11b;" horiz-adv-x="1137" 
d="M600 -20q-154 0 -270.5 64.5t-181.5 182.5t-65 278q0 155 59.5 279.5t171.5 197t271 72.5q158 0 265 -66.5t162 -185t55 -273.5v-79h-695q0 -79 26 -137.5t75.5 -90t119.5 -31.5q75 0 131 32t79 105h263q-18 -110 -88 -188t-170 -119t-208 -41zM372 624h422
q0 62 -23.5 114t-70 82t-116.5 30q-67 0 -114.5 -32.5t-73 -84.5t-24.5 -109zM474 1155l-263 261h217l146 -150l132 150h228l-257 -261h-203z" />
    <glyph glyph-name="Gcircumflex" unicode="&#x11c;" horiz-adv-x="1518" 
d="M747 -20q-199 0 -345.5 90.5t-226 256.5t-79.5 392q0 230 83.5 397.5t233.5 258.5t350 91q129 0 235 -41t184.5 -112t123 -160.5t48.5 -185.5h-308q-13 69 -51.5 126t-98.5 91.5t-140 34.5q-96 0 -174 -49.5t-123 -157.5t-45 -285q0 -143 29.5 -238t79.5 -150.5
t114 -78.5t131 -23q64 0 114.5 21.5t86.5 55.5t57 74.5t27 79.5l11 88h-299v202l605 -3v-755h-199v189q-37 -49 -91.5 -97.5t-135 -80t-197.5 -31.5zM391 1567l264 259h202l257 -259h-228l-132 140l-146 -140h-217z" />
    <glyph glyph-name="gcircumflex" unicode="&#x11d;" horiz-adv-x="1257" 
d="M605 -342q-276 0 -419.5 70t-143.5 184q0 53 27.5 89t65 57.5t69 33t39.5 15.5q-16 9 -46.5 26.5t-55.5 48t-25 79.5q0 55 52.5 102t159.5 65q-102 48 -155.5 130t-53.5 168q0 102 64 175t175 111t251 38q106 0 174.5 -22.5t126.5 -58.5q23 9 60.5 23.5t82 32t86.5 35
t75 31.5l-2 -226l-178 -29q10 -27 16 -58t6 -51q0 -90 -52.5 -168t-156.5 -126t-259 -48q-18 0 -50 1t-52 3q-58 -3 -80.5 -15t-22.5 -28q0 -24 45 -31.5t136 -13.5q33 -2 90 -5t125 -8q190 -13 283.5 -93.5t93.5 -202.5q0 -145 -137.5 -239.5t-413.5 -94.5zM652 -179
q121 0 173.5 30t52.5 86q0 47 -40.5 76.5t-116.5 34.5l-237 16q-47 2 -82 -14t-54.5 -44t-19.5 -60q0 -65 79 -95t245 -30zM597 548q83 0 133 45.5t50 123.5q0 81 -50 130t-133 49t-134 -49t-51 -130q0 -77 49.5 -123t135.5 -46zM244 1155l264 259h202l257 -259h-228
l-132 140l-146 -140h-217z" />
    <glyph glyph-name="Gbreve" unicode="&#x11e;" horiz-adv-x="1518" 
d="M747 -20q-199 0 -345.5 90.5t-226 256.5t-79.5 392q0 230 83.5 397.5t233.5 258.5t350 91q129 0 235 -41t184.5 -112t123 -160.5t48.5 -185.5h-308q-13 69 -51.5 126t-98.5 91.5t-140 34.5q-96 0 -174 -49.5t-123 -157.5t-45 -285q0 -143 29.5 -238t79.5 -150.5
t114 -78.5t131 -23q64 0 114.5 21.5t86.5 55.5t57 74.5t27 79.5l11 88h-299v202l605 -3v-755h-199v189q-37 -49 -91.5 -97.5t-135 -80t-197.5 -31.5zM755 1567q-84 0 -157.5 28.5t-124.5 85.5t-68 141h184q15 -50 58 -81.5t108 -31.5q64 0 107.5 31.5t60.5 81.5h183
q-17 -84 -68 -140.5t-124.5 -85.5t-158.5 -29z" />
    <glyph glyph-name="gbreve" unicode="&#x11f;" horiz-adv-x="1257" 
d="M605 -342q-276 0 -419.5 70t-143.5 184q0 53 27.5 89t65 57.5t69 33t39.5 15.5q-16 9 -46.5 26.5t-55.5 48t-25 79.5q0 55 52.5 102t159.5 65q-102 48 -155.5 130t-53.5 168q0 102 64 175t175 111t251 38q106 0 174.5 -22.5t126.5 -58.5q23 9 60.5 23.5t82 32t86.5 35
t75 31.5l-2 -226l-178 -29q10 -27 16 -58t6 -51q0 -90 -52.5 -168t-156.5 -126t-259 -48q-18 0 -50 1t-52 3q-58 -3 -80.5 -15t-22.5 -28q0 -24 45 -31.5t136 -13.5q33 -2 90 -5t125 -8q190 -13 283.5 -93.5t93.5 -202.5q0 -145 -137.5 -239.5t-413.5 -94.5zM652 -179
q121 0 173.5 30t52.5 86q0 47 -40.5 76.5t-116.5 34.5l-237 16q-47 2 -82 -14t-54.5 -44t-19.5 -60q0 -65 79 -95t245 -30zM597 548q83 0 133 45.5t50 123.5q0 81 -50 130t-133 49t-134 -49t-51 -130q0 -77 49.5 -123t135.5 -46zM608 1155q-84 0 -157.5 28.5t-124.5 85.5
t-68 141h184q15 -50 58 -81.5t108 -31.5q64 0 107.5 31.5t60.5 81.5h183q-17 -84 -68 -140.5t-124.5 -85.5t-158.5 -29z" />
    <glyph glyph-name="Gdotaccent" unicode="&#x120;" horiz-adv-x="1518" 
d="M747 -20q-199 0 -345.5 90.5t-226 256.5t-79.5 392q0 230 83.5 397.5t233.5 258.5t350 91q129 0 235 -41t184.5 -112t123 -160.5t48.5 -185.5h-308q-13 69 -51.5 126t-98.5 91.5t-140 34.5q-96 0 -174 -49.5t-123 -157.5t-45 -285q0 -143 29.5 -238t79.5 -150.5
t114 -78.5t131 -23q64 0 114.5 21.5t86.5 55.5t57 74.5t27 79.5l11 88h-299v202l605 -3v-755h-199v189q-37 -49 -91.5 -97.5t-135 -80t-197.5 -31.5zM615 1620v238h279v-238h-279z" />
    <glyph glyph-name="gdotaccent" unicode="&#x121;" horiz-adv-x="1257" 
d="M605 -342q-276 0 -419.5 70t-143.5 184q0 53 27.5 89t65 57.5t69 33t39.5 15.5q-16 9 -46.5 26.5t-55.5 48t-25 79.5q0 55 52.5 102t159.5 65q-102 48 -155.5 130t-53.5 168q0 102 64 175t175 111t251 38q106 0 174.5 -22.5t126.5 -58.5q23 9 60.5 23.5t82 32t86.5 35
t75 31.5l-2 -226l-178 -29q10 -27 16 -58t6 -51q0 -90 -52.5 -168t-156.5 -126t-259 -48q-18 0 -50 1t-52 3q-58 -3 -80.5 -15t-22.5 -28q0 -24 45 -31.5t136 -13.5q33 -2 90 -5t125 -8q190 -13 283.5 -93.5t93.5 -202.5q0 -145 -137.5 -239.5t-413.5 -94.5zM652 -179
q121 0 173.5 30t52.5 86q0 47 -40.5 76.5t-116.5 34.5l-237 16q-47 2 -82 -14t-54.5 -44t-19.5 -60q0 -65 79 -95t245 -30zM597 548q83 0 133 45.5t50 123.5q0 81 -50 130t-133 49t-134 -49t-51 -130q0 -77 49.5 -123t135.5 -46zM468 1208v238h279v-238h-279z" />
    <glyph glyph-name="uni0122" unicode="&#x122;" horiz-adv-x="1518" 
d="M747 -20q-199 0 -345.5 90.5t-226 256.5t-79.5 392q0 230 83.5 397.5t233.5 258.5t350 91q129 0 235 -41t184.5 -112t123 -160.5t48.5 -185.5h-308q-13 69 -51.5 126t-98.5 91.5t-140 34.5q-96 0 -174 -49.5t-123 -157.5t-45 -285q0 -143 29.5 -238t79.5 -150.5
t114 -78.5t131 -23q64 0 114.5 21.5t86.5 55.5t57 74.5t27 79.5l11 88h-299v202l605 -3v-755h-199v189q-37 -49 -91.5 -97.5t-135 -80t-197.5 -31.5zM613 -440l92 149l-80 10v187h248v-156l-156 -190h-104z" />
    <glyph glyph-name="uni0123" unicode="&#x123;" horiz-adv-x="1257" 
d="M605 -342q-276 0 -419.5 70t-143.5 184q0 53 27.5 89t65 57.5t69 33t39.5 15.5q-16 9 -46.5 26.5t-55.5 48t-25 79.5q0 55 52.5 102t159.5 65q-102 48 -155.5 130t-53.5 168q0 102 64 175t175 111t251 38q106 0 174.5 -22.5t126.5 -58.5q23 9 60.5 23.5t82 32t86.5 35
t75 31.5l-2 -226l-178 -29q10 -27 16 -58t6 -51q0 -90 -52.5 -168t-156.5 -126t-259 -48q-18 0 -50 1t-52 3q-58 -3 -80.5 -15t-22.5 -28q0 -24 45 -31.5t136 -13.5q33 -2 90 -5t125 -8q190 -13 283.5 -93.5t93.5 -202.5q0 -145 -137.5 -239.5t-413.5 -94.5zM652 -179
q121 0 173.5 30t52.5 86q0 47 -40.5 76.5t-116.5 34.5l-237 16q-47 2 -82 -14t-54.5 -44t-19.5 -60q0 -65 79 -95t245 -30zM597 548q83 0 133 45.5t50 123.5q0 81 -50 130t-133 49t-134 -49t-51 -130q0 -77 49.5 -123t135.5 -46zM485 1155v177l145 195h107l-89 -162l81 -9
v-201h-244z" />
    <glyph glyph-name="Hcircumflex" unicode="&#x124;" horiz-adv-x="1540" 
d="M162 0v1446h291v-580h633v580h292v-1446h-292v621h-633v-621h-291zM406 1571l264 259h202l257 -259h-228l-132 140l-146 -140h-217z" />
    <glyph glyph-name="hcircumflex" unicode="&#x125;" horiz-adv-x="1185" 
d="M125 0v1486h290v-601q25 36 63 71.5t95 59.5t139 24q99 0 180.5 -38.5t131 -111.5t49.5 -178v-712h-293v669q0 70 -50.5 107.5t-122.5 37.5q-47 0 -91 -17t-71.5 -51.5t-27.5 -85.5v-660h-292zM-97 1567l264 259h202l257 -259h-228l-132 140l-146 -140h-217z" />
    <glyph glyph-name="Hbar" unicode="&#x126;" horiz-adv-x="1649" 
d="M34 1096v164h1581v-164h-1581zM224 0v1446h292v-580h633v580h292v-1446h-292v621h-633v-621h-292z" />
    <glyph glyph-name="hbar" unicode="&#x127;" horiz-adv-x="1237" 
d="M40 1160v164h673v-164h-673zM177 0v1486h290v-601q25 36 63 71.5t95 59.5t139 24q99 0 181 -38.5t131 -111.5t49 -178v-712h-292v669q0 70 -51 107.5t-122 37.5q-48 0 -92 -17t-71.5 -51.5t-27.5 -85.5v-660h-292z" />
    <glyph glyph-name="Itilde" unicode="&#x128;" horiz-adv-x="615" 
d="M162 0v1446h291v-1446h-291zM14 1603l-45 153q36 37 80 64t112 27q56 0 106.5 -15t97 -30.5t91.5 -15.5q53 0 94 22.5t73 46.5l36 -173q-31 -25 -83 -47.5t-119 -22.5q-56 0 -101.5 14t-89.5 27.5t-95 13.5t-84.5 -15.5t-72.5 -48.5z" />
    <glyph glyph-name="itilde" unicode="&#x129;" horiz-adv-x="680" 
d="M191 0v1034h279v-1034h-279zM40 1191l-45 153q36 37 80 64t112 27q56 0 106.5 -15t97 -30.5t91.5 -15.5q53 0 94 22.5t73 46.5l36 -173q-31 -25 -83 -47.5t-119 -22.5q-56 0 -101.5 14t-89.5 27.5t-95 13.5t-84.5 -15.5t-72.5 -48.5z" />
    <glyph glyph-name="Imacron" unicode="&#x12a;" horiz-adv-x="615" 
d="M162 0v1446h291v-1446h-291zM-43 1617v187h703v-187h-703z" />
    <glyph glyph-name="imacron" unicode="&#x12b;" horiz-adv-x="701" 
d="M206 0v1034h279v-1034h-279zM-1 1205v187h703v-187h-703z" />
    <glyph glyph-name="Ibreve" unicode="&#x12c;" horiz-adv-x="615" 
d="M162 0v1446h291v-1446h-291zM308 1567q-84 0 -157.5 28.5t-124.5 85.5t-68 141h184q15 -50 58 -81.5t108 -31.5q64 0 107.5 31.5t60.5 81.5h183q-17 -84 -68 -140.5t-124.5 -85.5t-158.5 -29z" />
    <glyph glyph-name="ibreve" unicode="&#x12d;" horiz-adv-x="529" 
d="M125 0v1034h279v-1034h-279zM268 1155q-84 0 -157.5 28.5t-124.5 85.5t-68 141h184q15 -50 58 -81.5t108 -31.5q64 0 107.5 31.5t60.5 81.5h183q-17 -84 -68 -140.5t-124.5 -85.5t-158.5 -29z" />
    <glyph glyph-name="Iogonek" unicode="&#x12e;" horiz-adv-x="615" 
d="M162 0v1446h291v-1446h-291zM273 -345q-102 0 -159.5 42t-57.5 122q0 55 37.5 101.5t154.5 85.5l204 -5q-106 -39 -145.5 -72t-39.5 -74q0 -32 17 -48t55 -16q46 0 81 13.5t64 30.5v-132q-28 -17 -85.5 -32.5t-125.5 -15.5z" />
    <glyph glyph-name="iogonek" unicode="&#x12f;" horiz-adv-x="529" 
d="M125 0v1034h279v-1034h-279zM129 1208v238h279v-238h-279zM229 -337q-102 0 -159.5 42t-57.5 122q0 55 37.5 101.5t154.5 85.5l204 -5q-106 -39 -145.5 -72t-39.5 -74q0 -32 17 -48t55 -16q46 0 81 13.5t64 30.5v-132q-28 -17 -85.5 -32.5t-125.5 -15.5z" />
    <glyph glyph-name="Idotaccent" unicode="&#x130;" horiz-adv-x="615" 
d="M162 0v1446h291v-1446h-291zM169 1620v238h279v-238h-279z" />
    <glyph glyph-name="dotlessi" unicode="&#x131;" horiz-adv-x="529" 
d="M125 0v1034h279v-1034h-279z" />
    <glyph glyph-name="Jcircumflex" unicode="&#x134;" horiz-adv-x="804" 
d="M304 -20q-69 0 -142 11.5t-107 20.5l6 267q29 -6 66.5 -16t83.5 -10q101 0 136 53.5t35 173.5v966h292v-1044q0 -138 -30 -232t-110 -142t-230 -48zM157 1567l264 259h202l257 -259h-228l-132 140l-146 -140h-217z" />
    <glyph glyph-name="jcircumflex" unicode="&#x135;" horiz-adv-x="575" 
d="M100 -332q-81 0 -106 12.5t-25 16.5l-1 195l79 8q62 8 86.5 34t24.5 76v1024h292v-1027q0 -169 -83 -254t-267 -85zM-61 1155l264 259h202l257 -259h-228l-132 140l-146 -140h-217z" />
    <glyph glyph-name="uni0136" unicode="&#x136;" horiz-adv-x="1434" 
d="M162 0v1446h303v-662l527 662h335l-439 -560l492 -886h-318l-383 673l-214 -258v-415h-303zM566 -440l92 149l-80 10v187h248v-156l-156 -190h-104z" />
    <glyph glyph-name="uni0137" unicode="&#x137;" horiz-adv-x="1159" 
d="M125 0v1486h292v-881l380 429h314l-376 -412l389 -622h-291l-279 446l-137 -146v-300h-292zM447 -440l92 149l-80 10v187h248v-156l-156 -190h-104z" />
    <glyph glyph-name="kgreenlandic" unicode="&#x138;" horiz-adv-x="1202" 
d="M125 0v1034h292v-457l422 457h297l-344 -347l375 -687h-334l-236 475l-180 -175v-300h-292z" />
    <glyph glyph-name="Lacute" unicode="&#x139;" horiz-adv-x="1155" 
d="M162 0v1446h294v-1199h628v-247h-922zM194 1567l206 291h301l-297 -291h-210z" />
    <glyph glyph-name="lacute" unicode="&#x13a;" horiz-adv-x="658" 
d="M455 -18q-114 0 -181 27t-99 71.5t-41 99t-9 110.5v1196h286v-1160q0 -57 24.5 -92.5t92.5 -43.5l49 -3v-180q-30 -10 -61 -17.5t-61 -7.5zM158 1649l206 291h301l-297 -291h-210z" />
    <glyph glyph-name="uni013B" unicode="&#x13b;" horiz-adv-x="1155" 
d="M162 0v1446h294v-1199h628v-247h-922zM479 -440l92 149l-80 10v187h248v-156l-156 -190h-104z" />
    <glyph glyph-name="uni013C" unicode="&#x13c;" horiz-adv-x="658" 
d="M455 -18q-114 0 -181 27t-99 71.5t-41 99t-9 110.5v1196h286v-1160q0 -57 24.5 -92.5t92.5 -43.5l49 -3v-180q-30 -10 -61 -17.5t-61 -7.5zM128 -439l92 149l-80 10v187h248v-156l-156 -190h-104z" />
    <glyph glyph-name="Lcaron" unicode="&#x13d;" horiz-adv-x="1155" 
d="M162 0v1446h294v-1199h628v-247h-922zM783 1010l82 202l-71 12v222h199v-233l-86 -203h-124z" />
    <glyph glyph-name="lcaron" unicode="&#x13e;" horiz-adv-x="658" 
d="M455 -18q-114 0 -181 27t-99 71.5t-41 99t-9 110.5v1196h286v-1160q0 -57 24.5 -92.5t92.5 -43.5l49 -3v-180q-30 -10 -61 -17.5t-61 -7.5zM515 1050l82 202l-71 12v222h199v-233l-86 -203h-124z" />
    <glyph glyph-name="Ldot" unicode="&#x13f;" horiz-adv-x="1155" 
d="M162 0v1446h294v-1199h628v-247h-922zM736 659v287h299v-287h-299z" />
    <glyph glyph-name="ldot" unicode="&#x140;" horiz-adv-x="848" 
d="M455 -18q-114 0 -181 27t-99 71.5t-41 99t-9 110.5v1196h286v-1160q0 -57 24.5 -92.5t92.5 -43.5l49 -3v-180q-30 -10 -61 -17.5t-61 -7.5zM542 631v287h299v-287h-299z" />
    <glyph glyph-name="Lslash" unicode="&#x141;" horiz-adv-x="1180" 
d="M9 568v242l781 206v-231zM186 0l1 1446h293v-1199h628v-247h-922z" />
    <glyph glyph-name="lslash" unicode="&#x142;" horiz-adv-x="742" 
d="M70 302v250l579 408v-238zM528 -18q-115 0 -181.5 27t-98.5 71.5t-41 99t-9 110.5v1196h286v-1160q0 -57 24.5 -92.5t92.5 -43.5l48 -3v-180q-29 -10 -60.5 -17.5t-60.5 -7.5z" />
    <glyph glyph-name="Nacute" unicode="&#x143;" horiz-adv-x="1564" 
d="M162 0v1446h289l660 -957v957h292v-1446h-263l-687 995v-995h-291zM672 1567l206 291h301l-297 -291h-210z" />
    <glyph glyph-name="nacute" unicode="&#x144;" horiz-adv-x="1186" 
d="M125 0v1034h287v-146q24 38 62.5 73.5t97.5 58.5t140 23q95 0 177.5 -37t133.5 -116.5t51 -207.5v-682h-292v646q0 84 -50 126t-122 42q-48 0 -92.5 -17t-72.5 -51t-28 -84v-662h-292zM496 1155l206 291h301l-297 -291h-210z" />
    <glyph glyph-name="uni0145" unicode="&#x145;" horiz-adv-x="1564" 
d="M162 0v1446h289l660 -957v957h292v-1446h-263l-687 995v-995h-291zM631 -440l92 149l-80 10v187h248v-156l-156 -190h-104z" />
    <glyph glyph-name="uni0146" unicode="&#x146;" horiz-adv-x="1186" 
d="M125 0v1034h287v-146q24 38 62.5 73.5t97.5 58.5t140 23q95 0 177.5 -37t133.5 -116.5t51 -207.5v-682h-292v646q0 84 -50 126t-122 42q-48 0 -92.5 -17t-72.5 -51t-28 -84v-662h-292zM463 -440l92 149l-80 10v187h248v-156l-156 -190h-104z" />
    <glyph glyph-name="Ncaron" unicode="&#x147;" horiz-adv-x="1564" 
d="M162 0v1446h289l660 -957v957h292v-1446h-263l-687 995v-995h-291zM680 1567l-263 261h217l146 -150l132 150h228l-257 -261h-203z" />
    <glyph glyph-name="ncaron" unicode="&#x148;" horiz-adv-x="1186" 
d="M125 0v1034h287v-146q24 38 62.5 73.5t97.5 58.5t140 23q95 0 177.5 -37t133.5 -116.5t51 -207.5v-682h-292v646q0 84 -50 126t-122 42q-48 0 -92.5 -17t-72.5 -51t-28 -84v-662h-292zM504 1155l-263 261h217l146 -150l132 150h228l-257 -261h-203z" />
    <glyph glyph-name="Eng" unicode="&#x14a;" horiz-adv-x="1564" 
d="M1031 -480q-68 0 -141 11.5t-108 20.5l7 267q29 -6 66.5 -16t82.5 -10q89 0 130 42.5t41 137.5v71l-656 951v-995h-291v1446h289l660 -957v957h292l-1 -1502q0 -151 -34.5 -244.5t-115.5 -136.5t-221 -43z" />
    <glyph glyph-name="eng" unicode="&#x14b;" horiz-adv-x="1200" 
d="M733 -332q-82 0 -101.5 10t-19.5 14v200l66 5q56 6 80.5 30.5t24.5 78.5v691q0 65 -36.5 104.5t-110.5 39.5q-61 0 -114.5 -32t-101.5 -93v-716h-295l4 1034h285v-160q57 58 113.5 98t115 61t123.5 21q141 0 225 -84t84 -223v-733q0 -108 -41.5 -185.5t-118.5 -119
t-182 -41.5z" />
    <glyph glyph-name="Omacron" unicode="&#x14c;" horiz-adv-x="1521" 
d="M763 -20q-205 0 -354.5 89.5t-231 255t-81.5 395.5q0 231 82.5 398t232.5 257.5t352 90.5q201 0 350 -90t230.5 -257t81.5 -399q0 -229 -80.5 -395t-229.5 -255.5t-352 -89.5zM763 220q106 0 183.5 50.5t119.5 160t42 285.5q0 181 -42.5 293t-120 164.5t-182.5 52.5
t-183 -52.5t-121 -165t-43 -292.5q0 -177 43 -286t121 -159.5t183 -50.5zM411 1617v187h703v-187h-703z" />
    <glyph glyph-name="omacron" unicode="&#x14d;" horiz-adv-x="1151" 
d="M576 -20q-152 0 -264.5 65t-174 184t-61.5 282t61.5 285t174 190t265.5 68t265 -66.5t173 -188.5t61 -288q0 -156 -59.5 -275.5t-171 -187.5t-269.5 -68zM577 197q77 0 124 45t68 118.5t21 160.5q0 82 -19 155t-66 118t-128 45q-77 0 -124.5 -42.5t-69.5 -115t-22 -160.5
q0 -81 20 -155.5t67 -121.5t129 -47zM225 1205v187h703v-187h-703z" />
    <glyph glyph-name="Obreve" unicode="&#x14e;" horiz-adv-x="1521" 
d="M763 -20q-205 0 -354.5 89.5t-231 255t-81.5 395.5q0 231 82.5 398t232.5 257.5t352 90.5q201 0 350 -90t230.5 -257t81.5 -399q0 -229 -80.5 -395t-229.5 -255.5t-352 -89.5zM763 220q106 0 183.5 50.5t119.5 160t42 285.5q0 181 -42.5 293t-120 164.5t-182.5 52.5
t-183 -52.5t-121 -165t-43 -292.5q0 -177 43 -286t121 -159.5t183 -50.5zM762 1567q-84 0 -157.5 28.5t-124.5 85.5t-68 141h184q15 -50 58 -81.5t108 -31.5q64 0 107.5 31.5t60.5 81.5h183q-17 -84 -68 -140.5t-124.5 -85.5t-158.5 -29z" />
    <glyph glyph-name="obreve" unicode="&#x14f;" horiz-adv-x="1151" 
d="M576 -20q-152 0 -264.5 65t-174 184t-61.5 282t61.5 285t174 190t265.5 68t265 -66.5t173 -188.5t61 -288q0 -156 -59.5 -275.5t-171 -187.5t-269.5 -68zM577 197q77 0 124 45t68 118.5t21 160.5q0 82 -19 155t-66 118t-128 45q-77 0 -124.5 -42.5t-69.5 -115t-22 -160.5
q0 -81 20 -155.5t67 -121.5t129 -47zM576 1155q-84 0 -157.5 28.5t-124.5 85.5t-68 141h184q15 -50 58 -81.5t108 -31.5q64 0 107.5 31.5t60.5 81.5h183q-17 -84 -68 -140.5t-124.5 -85.5t-158.5 -29z" />
    <glyph glyph-name="Ohungarumlaut" unicode="&#x150;" horiz-adv-x="1521" 
d="M763 -20q-205 0 -354.5 89.5t-231 255t-81.5 395.5q0 231 82.5 398t232.5 257.5t352 90.5q201 0 350 -90t230.5 -257t81.5 -399q0 -229 -80.5 -395t-229.5 -255.5t-352 -89.5zM763 220q106 0 183.5 50.5t119.5 160t42 285.5q0 181 -42.5 293t-120 164.5t-182.5 52.5
t-183 -52.5t-121 -165t-43 -292.5q0 -177 43 -286t121 -159.5t183 -50.5zM834 1567l247 291h275l-311 -291h-211zM481 1567l202 291h266l-257 -291h-211z" />
    <glyph glyph-name="ohungarumlaut" unicode="&#x151;" horiz-adv-x="1151" 
d="M576 -20q-152 0 -264.5 65t-174 184t-61.5 282t61.5 285t174 190t265.5 68t265 -66.5t173 -188.5t61 -288q0 -156 -59.5 -275.5t-171 -187.5t-269.5 -68zM577 197q77 0 124 45t68 118.5t21 160.5q0 82 -19 155t-66 118t-128 45q-77 0 -124.5 -42.5t-69.5 -115t-22 -160.5
q0 -81 20 -155.5t67 -121.5t129 -47zM649 1155l247 291h275l-311 -291h-211zM296 1155l202 291h266l-257 -291h-211z" />
    <glyph glyph-name="OE" unicode="&#x152;" horiz-adv-x="2254" 
d="M1438 608v-359l712 -1v-248h-1004v132q-70 -74 -166.5 -113t-216.5 -39q-205 0 -354.5 89.5t-231 255t-81.5 395.5q0 231 82.5 398t232.5 257.5t352 90.5q119 0 216 -39t167 -115v134h994l-2 -246h-698v-351h606v-241h-608zM763 220q106 0 183.5 50.5t119.5 160t42 285.5
q0 181 -42.5 293t-120 164.5t-182.5 52.5t-183 -52.5t-121 -165t-43 -292.5q0 -177 43 -286t121 -159.5t183 -50.5z" />
    <glyph glyph-name="oe" unicode="&#x153;" horiz-adv-x="1868" 
d="M1782 529v-79h-694q-1 -79 25 -137.5t75.5 -90t119.5 -31.5q75 0 131.5 32t78.5 105h263q-17 -110 -87.5 -188t-170.5 -119t-208 -41q-120 0 -216.5 43.5t-159.5 125.5q-59 -79 -150 -124t-213 -45q-152 0 -264.5 65t-174 184t-61.5 282t61.5 285t174 190t265.5 68
q118 0 211 -43.5t152 -127.5q60 81 150.5 126t209.5 45q158 0 265.5 -66.5t162 -185t54.5 -273.5zM577 197q77 0 124 45t68 118.5t21 160.5q0 82 -19 155t-66 118t-128 45q-77 0 -124.5 -42.5t-69.5 -115t-22 -160.5q0 -81 20 -155.5t67 -121.5t129 -47zM1087 624h422
q0 62 -23 114t-69.5 82t-116.5 30q-67 0 -115 -32.5t-73 -84.5t-25 -109z" />
    <glyph glyph-name="Racute" unicode="&#x154;" horiz-adv-x="1392" 
d="M162 0v1446h610q173 0 283 -55t162 -152.5t52 -224.5q0 -114 -35.5 -192.5t-93 -130.5t-125.5 -85l269 -606h-303l-235 557h-293v-557h-291zM453 782h267q117 0 185.5 63t68.5 162q0 100 -66 158t-167 58h-288v-441zM571 1567l206 291h301l-297 -291h-210z" />
    <glyph glyph-name="racute" unicode="&#x155;" horiz-adv-x="824" 
d="M125 0v1034h281v-245q25 79 70.5 138.5t110.5 93t147 33.5q14 0 26.5 -1.5t18.5 -4.5v-278q-9 4 -21.5 5t-22.5 2q-86 7 -147 -5t-99 -41t-55 -71t-17 -94v-566h-292zM339 1155l206 291h301l-297 -291h-210z" />
    <glyph glyph-name="uni0156" unicode="&#x156;" horiz-adv-x="1392" 
d="M162 0v1446h610q173 0 283 -55t162 -152.5t52 -224.5q0 -114 -35.5 -192.5t-93 -130.5t-125.5 -85l269 -606h-303l-235 557h-293v-557h-291zM453 782h267q117 0 185.5 63t68.5 162q0 100 -66 158t-167 58h-288v-441zM562 -440l92 149l-80 10v187h248v-156l-156 -190h-104
z" />
    <glyph glyph-name="uni0157" unicode="&#x157;" horiz-adv-x="824" 
d="M125 0v1034h281v-245q25 79 70.5 138.5t110.5 93t147 33.5q14 0 26.5 -1.5t18.5 -4.5v-278q-9 4 -21.5 5t-22.5 2q-86 7 -147 -5t-99 -41t-55 -71t-17 -94v-566h-292zM133 -440l92 149l-80 10v187h248v-156l-156 -190h-104z" />
    <glyph glyph-name="Rcaron" unicode="&#x158;" horiz-adv-x="1392" 
d="M162 0v1446h610q173 0 283 -55t162 -152.5t52 -224.5q0 -114 -35.5 -192.5t-93 -130.5t-125.5 -85l269 -606h-303l-235 557h-293v-557h-291zM453 782h267q117 0 185.5 63t68.5 162q0 100 -66 158t-167 58h-288v-441zM579 1567l-263 261h217l146 -150l132 150h228
l-257 -261h-203z" />
    <glyph glyph-name="rcaron" unicode="&#x159;" horiz-adv-x="824" 
d="M125 0v1034h281v-245q25 79 70.5 138.5t110.5 93t147 33.5q14 0 26.5 -1.5t18.5 -4.5v-278q-9 4 -21.5 5t-22.5 2q-86 7 -147 -5t-99 -41t-55 -71t-17 -94v-566h-292zM347 1155l-263 261h217l146 -150l132 150h228l-257 -261h-203z" />
    <glyph glyph-name="Sacute" unicode="&#x15a;" horiz-adv-x="1384" 
d="M704 -20q-108 0 -211 27t-188 81t-139.5 135t-65.5 190h299q15 -66 57.5 -111t110 -69t154.5 -24q69 0 131 20t101 61t39 103q0 74 -54 111.5t-147 59.5l-271 59q-115 24 -200.5 74.5t-131.5 132t-46 198.5q0 135 74.5 233t203 150.5t288.5 52.5q181 0 305.5 -58.5
t190.5 -158t67 -221.5h-292q-8 75 -46 120.5t-97.5 66t-135.5 20.5q-131 0 -191 -53t-60 -123q0 -66 45.5 -106.5t146.5 -61.5l251 -54q140 -27 227 -85.5t127 -141.5t40 -186q0 -131 -74.5 -230.5t-205.5 -155.5t-302 -56zM585 1567l206 291h301l-297 -291h-210z" />
    <glyph glyph-name="sacute" unicode="&#x15b;" horiz-adv-x="1054" 
d="M541 -20q-108 0 -207.5 35.5t-169 112t-87.5 198.5h252q14 -55 48.5 -87t78.5 -45.5t84 -13.5q84 0 135.5 26.5t51.5 81.5q0 42 -30.5 67t-100.5 38l-182 38q-137 29 -220.5 98.5t-84.5 197.5q-1 93 48.5 167t147 117t238.5 43q191 0 305.5 -84t116.5 -237h-244
q-11 60 -59.5 92.5t-122.5 32.5q-75 0 -124 -27t-49 -82q0 -41 40 -64.5t124 -40.5l168 -38q87 -21 141.5 -57.5t84.5 -79.5t41.5 -86.5t11.5 -78.5q0 -103 -55 -175.5t-153 -110.5t-228 -38zM435 1155l206 291h301l-297 -291h-210z" />
    <glyph glyph-name="Scircumflex" unicode="&#x15c;" horiz-adv-x="1384" 
d="M704 -20q-108 0 -211 27t-188 81t-139.5 135t-65.5 190h299q15 -66 57.5 -111t110 -69t154.5 -24q69 0 131 20t101 61t39 103q0 74 -54 111.5t-147 59.5l-271 59q-115 24 -200.5 74.5t-131.5 132t-46 198.5q0 135 74.5 233t203 150.5t288.5 52.5q181 0 305.5 -58.5
t190.5 -158t67 -221.5h-292q-8 75 -46 120.5t-97.5 66t-135.5 20.5q-131 0 -191 -53t-60 -123q0 -66 45.5 -106.5t146.5 -61.5l251 -54q140 -27 227 -85.5t127 -141.5t40 -186q0 -131 -74.5 -230.5t-205.5 -155.5t-302 -56zM330 1567l264 259h202l257 -259h-228l-132 140
l-146 -140h-217z" />
    <glyph glyph-name="scircumflex" unicode="&#x15d;" horiz-adv-x="1054" 
d="M541 -20q-108 0 -207.5 35.5t-169 112t-87.5 198.5h252q14 -55 48.5 -87t78.5 -45.5t84 -13.5q84 0 135.5 26.5t51.5 81.5q0 42 -30.5 67t-100.5 38l-182 38q-137 29 -220.5 98.5t-84.5 197.5q-1 93 48.5 167t147 117t238.5 43q191 0 305.5 -84t116.5 -237h-244
q-11 60 -59.5 92.5t-122.5 32.5q-75 0 -124 -27t-49 -82q0 -41 40 -64.5t124 -40.5l168 -38q87 -21 141.5 -57.5t84.5 -79.5t41.5 -86.5t11.5 -78.5q0 -103 -55 -175.5t-153 -110.5t-228 -38zM180 1155l264 259h202l257 -259h-228l-132 140l-146 -140h-217z" />
    <glyph glyph-name="Scedilla" unicode="&#x15e;" horiz-adv-x="1384" 
d="M681 -425q-62 0 -120.5 12t-109.5 42l40 98q31 -19 71 -34t83 -15q48 0 74 16.5t26 45.5q0 39 -38 60t-131 22q-13 0 -17.5 3.5t0.5 15.5l74 169h129l-44 -117q75 -2 119.5 -26t63.5 -59.5t19 -70.5q0 -51 -33 -87.5t-87.5 -55.5t-118.5 -19zM704 -20q-108 0 -211 27
t-188 81t-139.5 135t-65.5 190h299q15 -66 57.5 -111t110 -69t154.5 -24q69 0 131 20t101 61t39 103q0 74 -54 111.5t-147 59.5l-271 59q-115 24 -200.5 74.5t-131.5 132t-46 198.5q0 135 74.5 233t203 150.5t288.5 52.5q181 0 305.5 -58.5t190.5 -158t67 -221.5h-292
q-8 75 -46 120.5t-97.5 66t-135.5 20.5q-131 0 -191 -53t-60 -123q0 -66 45.5 -106.5t146.5 -61.5l251 -54q140 -27 227 -85.5t127 -141.5t40 -186q0 -131 -74.5 -230.5t-205.5 -155.5t-302 -56z" />
    <glyph glyph-name="scedilla" unicode="&#x15f;" horiz-adv-x="1054" 
d="M525 -425q-62 0 -120.5 12t-109.5 42l40 98q32 -19 71.5 -34t83.5 -15q47 0 73 16.5t26 45.5q0 39 -38 60t-131 22q-13 0 -17 3.5t1 15.5l73 169h129l-44 -117q75 -2 119.5 -26t64 -59.5t19.5 -70.5q0 -51 -33.5 -87.5t-88 -55.5t-118.5 -19zM541 -20q-108 0 -207.5 35.5
t-169 112t-87.5 198.5h252q14 -55 48.5 -87t78.5 -45.5t84 -13.5q84 0 135.5 26.5t51.5 81.5q0 42 -30.5 67t-100.5 38l-182 38q-137 29 -220.5 98.5t-84.5 197.5q-1 93 48.5 167t147 117t238.5 43q191 0 305.5 -84t116.5 -237h-244q-11 60 -59.5 92.5t-122.5 32.5
q-75 0 -124 -27t-49 -82q0 -41 40 -64.5t124 -40.5l168 -38q87 -21 141.5 -57.5t84.5 -79.5t41.5 -86.5t11.5 -78.5q0 -103 -55 -175.5t-153 -110.5t-228 -38z" />
    <glyph glyph-name="Scaron" unicode="&#x160;" horiz-adv-x="1384" 
d="M704 -20q-108 0 -211 27t-188 81t-139.5 135t-65.5 190h299q15 -66 57.5 -111t110 -69t154.5 -24q69 0 131 20t101 61t39 103q0 74 -54 111.5t-147 59.5l-271 59q-115 24 -200.5 74.5t-131.5 132t-46 198.5q0 135 74.5 233t203 150.5t288.5 52.5q181 0 305.5 -58.5
t190.5 -158t67 -221.5h-292q-8 75 -46 120.5t-97.5 66t-135.5 20.5q-131 0 -191 -53t-60 -123q0 -66 45.5 -106.5t146.5 -61.5l251 -54q140 -27 227 -85.5t127 -141.5t40 -186q0 -131 -74.5 -230.5t-205.5 -155.5t-302 -56zM593 1567l-263 261h217l146 -150l132 150h228
l-257 -261h-203z" />
    <glyph glyph-name="scaron" unicode="&#x161;" horiz-adv-x="1054" 
d="M541 -20q-108 0 -207.5 35.5t-169 112t-87.5 198.5h252q14 -55 48.5 -87t78.5 -45.5t84 -13.5q84 0 135.5 26.5t51.5 81.5q0 42 -30.5 67t-100.5 38l-182 38q-137 29 -220.5 98.5t-84.5 197.5q-1 93 48.5 167t147 117t238.5 43q191 0 305.5 -84t116.5 -237h-244
q-11 60 -59.5 92.5t-122.5 32.5q-75 0 -124 -27t-49 -82q0 -41 40 -64.5t124 -40.5l168 -38q87 -21 141.5 -57.5t84.5 -79.5t41.5 -86.5t11.5 -78.5q0 -103 -55 -175.5t-153 -110.5t-228 -38zM443 1155l-263 261h217l146 -150l132 150h228l-257 -261h-203z" />
    <glyph glyph-name="uni0162" unicode="&#x162;" horiz-adv-x="1232" 
d="M626 -424q-63 0 -121.5 12t-108.5 42l40 99q31 -19 70.5 -34.5t83.5 -15.5q48 0 74 16.5t26 45.5q0 40 -38 60.5t-132 21.5q-12 0 -16.5 3.5t0.5 15.5l73 169h130l-45 -117q76 -1 120 -25.5t63.5 -60t19.5 -70.5q0 -51 -33.5 -87t-87.5 -55.5t-118 -19.5zM475 0v1186
h-437v260h1157v-260h-427v-1186h-293z" />
    <glyph glyph-name="uni0163" unicode="&#x163;" horiz-adv-x="833" 
d="M477 -413q-62 0 -120.5 12t-109.5 42l40 99q31 -19 71 -34.5t83 -15.5q48 0 74 16.5t26 45.5q0 40 -38 60.5t-131 21.5q-13 0 -17.5 3.5t0.5 15.5l74 169h129l-44 -117q75 -1 119.5 -25t63.5 -59.5t19 -71.5q0 -51 -33 -87t-87.5 -55.5t-118.5 -19.5zM571 -11
q-137 0 -211.5 35t-103 98t-28.5 146v563h-168v203h177l74 312h208v-311h230v-204h-230l2 -551q0 -38 9.5 -56.5t30 -24t52.5 -5.5h139v-180q-21 -9 -63 -17t-118 -8z" />
    <glyph glyph-name="Tcaron" unicode="&#x164;" horiz-adv-x="1232" 
d="M475 0v1186h-437v260h1157v-260h-427v-1186h-293zM534 1567l-263 261h217l146 -150l132 150h228l-257 -261h-203z" />
    <glyph glyph-name="tcaron" unicode="&#x165;" horiz-adv-x="900" 
d="M571 -11q-137 0 -211.5 35t-103 98t-28.5 146v563h-168v203h177l74 312h208v-311h230v-204h-230l2 -551q0 -38 9.5 -56.5t30 -24t52.5 -5.5h139v-180q-21 -9 -63 -17t-118 -8zM591 1119l82 202l-71 12v222h199v-233l-86 -203h-124z" />
    <glyph glyph-name="Tbar" unicode="&#x166;" horiz-adv-x="1232" 
d="M210 596v214h810v-214h-810zM475 0v1186h-437v260h1157v-260h-427v-1186h-293z" />
    <glyph glyph-name="tbar" unicode="&#x167;" horiz-adv-x="833" 
d="M79 493v165h649v-165h-649zM571 -11q-137 0 -211.5 35t-103 98t-28.5 146v563h-168v203h177l74 312h208v-311h230v-204h-230l2 -551q0 -38 9.5 -56.5t30 -24t52.5 -5.5h139v-180q-21 -9 -63 -17t-118 -8z" />
    <glyph glyph-name="Utilde" unicode="&#x168;" horiz-adv-x="1448" 
d="M740 -20q-211 0 -338 70.5t-183.5 200.5t-56.5 310v885h297v-907q0 -162 78 -236.5t203 -74.5q83 0 147 32.5t100.5 101t36.5 177.5v907h295v-895q0 -175 -57 -303.5t-184.5 -198t-337.5 -69.5zM446 1603l-45 153q36 37 80 64t112 27q56 0 106.5 -15t97 -30.5t91.5 -15.5
q53 0 94 22.5t73 46.5l36 -173q-31 -25 -83 -47.5t-119 -22.5q-56 0 -101.5 14t-89.5 27.5t-95 13.5t-84.5 -15.5t-72.5 -48.5z" />
    <glyph glyph-name="utilde" unicode="&#x169;" horiz-adv-x="1190" 
d="M506 -20q-72 0 -141.5 22t-126.5 65t-91.5 106t-34.5 146v715h292v-678q0 -72 47 -118t138 -46q86 0 136.5 44.5t50.5 124.5v673h289v-1034h-220l-34 205q-18 -91 -67.5 -139.5t-113 -67t-124.5 -18.5zM297 1191l-45 153q36 37 80 64t112 27q56 0 106.5 -15t97 -30.5
t91.5 -15.5q53 0 94 22.5t73 46.5l36 -173q-31 -25 -83 -47.5t-119 -22.5q-56 0 -101.5 14t-89.5 27.5t-95 13.5t-84.5 -15.5t-72.5 -48.5z" />
    <glyph glyph-name="Umacron" unicode="&#x16a;" horiz-adv-x="1448" 
d="M740 -20q-211 0 -338 70.5t-183.5 200.5t-56.5 310v885h297v-907q0 -162 78 -236.5t203 -74.5q83 0 147 32.5t100.5 101t36.5 177.5v907h295v-895q0 -175 -57 -303.5t-184.5 -198t-337.5 -69.5zM390 1617v187h703v-187h-703z" />
    <glyph glyph-name="umacron" unicode="&#x16b;" horiz-adv-x="1190" 
d="M506 -20q-72 0 -141.5 22t-126.5 65t-91.5 106t-34.5 146v715h292v-678q0 -72 47 -118t138 -46q86 0 136.5 44.5t50.5 124.5v673h289v-1034h-220l-34 205q-18 -91 -67.5 -139.5t-113 -67t-124.5 -18.5zM240 1205v187h703v-187h-703z" />
    <glyph glyph-name="Ubreve" unicode="&#x16c;" horiz-adv-x="1448" 
d="M740 -20q-211 0 -338 70.5t-183.5 200.5t-56.5 310v885h297v-907q0 -162 78 -236.5t203 -74.5q83 0 147 32.5t100.5 101t36.5 177.5v907h295v-895q0 -175 -57 -303.5t-184.5 -198t-337.5 -69.5zM741 1567q-84 0 -157.5 28.5t-124.5 85.5t-68 141h184q15 -50 58 -81.5
t108 -31.5q64 0 107.5 31.5t60.5 81.5h183q-17 -84 -68 -140.5t-124.5 -85.5t-158.5 -29z" />
    <glyph glyph-name="ubreve" unicode="&#x16d;" horiz-adv-x="1190" 
d="M506 -20q-72 0 -141.5 22t-126.5 65t-91.5 106t-34.5 146v715h292v-678q0 -72 47 -118t138 -46q86 0 136.5 44.5t50.5 124.5v673h289v-1034h-220l-34 205q-18 -91 -67.5 -139.5t-113 -67t-124.5 -18.5zM591 1155q-84 0 -157.5 28.5t-124.5 85.5t-68 141h184
q15 -50 58 -81.5t108 -31.5q64 0 107.5 31.5t60.5 81.5h183q-17 -84 -68 -140.5t-124.5 -85.5t-158.5 -29z" />
    <glyph glyph-name="Uring" unicode="&#x16e;" horiz-adv-x="1448" 
d="M740 -20q-211 0 -338 70.5t-183.5 200.5t-56.5 310v885h297v-907q0 -162 78 -236.5t203 -74.5q83 0 147 32.5t100.5 101t36.5 177.5v907h295v-895q0 -175 -57 -303.5t-184.5 -198t-337.5 -69.5zM741 1547q-91 0 -154 64t-63 157q0 88 64 149t153 61q60 0 109.5 -28.5
t79 -77t29.5 -108.5q0 -91 -63.5 -154t-154.5 -63zM739 1661q42 0 70.5 31t28.5 71q0 43 -28.5 71t-70.5 28q-41 0 -71.5 -28t-30.5 -71q0 -40 30.5 -71t71.5 -31z" />
    <glyph glyph-name="uring" unicode="&#x16f;" horiz-adv-x="1190" 
d="M506 -20q-72 0 -141.5 22t-126.5 65t-91.5 106t-34.5 146v715h292v-678q0 -72 47 -118t138 -46q86 0 136.5 44.5t50.5 124.5v673h289v-1034h-220l-34 205q-18 -91 -67.5 -139.5t-113 -67t-124.5 -18.5zM592 1135q-91 0 -154 64t-63 157q0 88 64 149t153 61
q60 0 109.5 -28.5t79 -77t29.5 -108.5q0 -91 -63.5 -154t-154.5 -63zM590 1249q42 0 70.5 31t28.5 71q0 43 -28.5 71t-70.5 28q-41 0 -71.5 -28t-30.5 -71q0 -40 30.5 -71t71.5 -31z" />
    <glyph glyph-name="Uhungarumlaut" unicode="&#x170;" horiz-adv-x="1448" 
d="M740 -20q-211 0 -338 70.5t-183.5 200.5t-56.5 310v885h297v-907q0 -162 78 -236.5t203 -74.5q83 0 147 32.5t100.5 101t36.5 177.5v907h295v-895q0 -175 -57 -303.5t-184.5 -198t-337.5 -69.5zM813 1567l247 291h275l-311 -291h-211zM460 1567l202 291h266l-257 -291
h-211z" />
    <glyph glyph-name="uhungarumlaut" unicode="&#x171;" horiz-adv-x="1190" 
d="M506 -20q-72 0 -141.5 22t-126.5 65t-91.5 106t-34.5 146v715h292v-678q0 -72 47 -118t138 -46q86 0 136.5 44.5t50.5 124.5v673h289v-1034h-220l-34 205q-18 -91 -67.5 -139.5t-113 -67t-124.5 -18.5zM664 1155l247 291h275l-311 -291h-211zM311 1155l202 291h266
l-257 -291h-211z" />
    <glyph glyph-name="Uogonek" unicode="&#x172;" horiz-adv-x="1448" 
d="M747 -335q-101 0 -159 42t-58 122q0 55 37.5 101.5t154.5 85.5l204 -6q-106 -38 -145.5 -71.5t-39.5 -73.5q0 -32 17.5 -48t54.5 -16q46 0 81 13.5t64 30.5v-133q-28 -16 -85.5 -31.5t-125.5 -15.5zM740 -20q-211 0 -338 70.5t-183.5 200.5t-56.5 310v885h297v-907
q0 -162 78 -236.5t203 -74.5q83 0 147 32.5t100.5 101t36.5 177.5v907h295v-895q0 -175 -57 -303.5t-184.5 -198t-337.5 -69.5z" />
    <glyph glyph-name="uogonek" unicode="&#x173;" horiz-adv-x="1190" 
d="M506 -20q-72 0 -141.5 22t-126.5 65t-91.5 106t-34.5 146v715h292v-678q0 -72 47 -118t138 -46q86 0 136.5 44.5t50.5 124.5v673h289v-1034h-220l-34 205q-18 -91 -67.5 -139.5t-113 -67t-124.5 -18.5zM878 -337q-102 0 -159.5 42t-57.5 122q0 55 37.5 101.5t154.5 85.5
l204 -5q-106 -39 -145.5 -72t-39.5 -74q0 -32 17 -48t55 -16q46 0 81 13.5t64 30.5v-132q-28 -17 -85.5 -32.5t-125.5 -15.5z" />
    <glyph glyph-name="Wcircumflex" unicode="&#x174;" horiz-adv-x="1937" 
d="M464 0l-426 1446h286l269 -955l269 955h211l272 -955l269 955h285l-427 -1446h-233l-272 945l-274 -945h-229zM603 1567l264 259h202l257 -259h-228l-132 140l-146 -140h-217z" />
    <glyph glyph-name="wcircumflex" unicode="&#x175;" horiz-adv-x="1577" 
d="M365 0l-335 1034h258l198 -641h7l190 641h209l192 -641h8l192 641h264l-340 -1034h-233l-192 626l-193 -626h-225zM433 1155l264 259h202l257 -259h-228l-132 140l-146 -140h-217z" />
    <glyph glyph-name="Ycircumflex" unicode="&#x176;" horiz-adv-x="1335" 
d="M521 0v609l-502 837h316l333 -586l329 586h319l-503 -838v-608h-292zM337 1568l264 259h202l257 -259h-228l-132 140l-146 -140h-217z" />
    <glyph glyph-name="ycircumflex" unicode="&#x177;" horiz-adv-x="1126" 
d="M287 -330q-106 0 -150 17.5l-44 17.5v186l103 -4q67 -4 108 6.5t62 27.5t30.5 35.5t13.5 29.5l19 57l-402 991h289l248 -674l250 674h286l-419 -1040q-54 -132 -114.5 -202t-130 -96t-149.5 -26zM208 1155l264 259h202l257 -259h-228l-132 140l-146 -140h-217z" />
    <glyph glyph-name="Ydieresis" unicode="&#x178;" horiz-adv-x="1335" 
d="M521 0v609l-502 837h316l333 -586l329 586h319l-503 -838v-608h-292zM796 1621l3 238h273l-2 -238h-274zM330 1621l3 238h273l-2 -238h-274z" />
    <glyph glyph-name="Zacute" unicode="&#x179;" horiz-adv-x="1339" 
d="M108 0v142l734 1060h-685v244h1101v-136l-744 -1063h736v-247h-1142zM612 1567l206 291h301l-297 -291h-210z" />
    <glyph glyph-name="zacute" unicode="&#x17a;" horiz-adv-x="993" 
d="M63 0v163l510 667h-484v204h838v-163l-511 -667h514v-204h-867zM391 1155l206 291h301l-297 -291h-210z" />
    <glyph glyph-name="Zdotaccent" unicode="&#x17b;" horiz-adv-x="1339" 
d="M108 0v142l734 1060h-685v244h1101v-136l-744 -1063h736v-247h-1142zM582 1620v238h279v-238h-279z" />
    <glyph glyph-name="zdotaccent" unicode="&#x17c;" horiz-adv-x="993" 
d="M63 0v163l510 667h-484v204h838v-163l-511 -667h514v-204h-867zM360 1208v238h279v-238h-279z" />
    <glyph glyph-name="Zcaron" unicode="&#x17d;" horiz-adv-x="1339" 
d="M108 0v142l734 1060h-685v244h1101v-136l-744 -1063h736v-247h-1142zM620 1567l-263 261h217l146 -150l132 150h228l-257 -261h-203z" />
    <glyph glyph-name="zcaron" unicode="&#x17e;" horiz-adv-x="993" 
d="M63 0v163l510 667h-484v204h838v-163l-511 -667h514v-204h-867zM399 1155l-263 261h217l146 -150l132 150h228l-257 -261h-203z" />
    <glyph glyph-name="uni018F" unicode="&#x18f;" horiz-adv-x="1518" 
d="M757 -20q-194 0 -343 85.5t-233 267t-84 468.5h977q0 188 -84.5 290.5t-238.5 102.5q-77 0 -137.5 -23t-102.5 -60t-64.5 -81t-22.5 -85h-328q0 86 46 177.5t132.5 169.5t208.5 126t274 48q208 0 357 -85.5t228.5 -249t79.5 -396.5q0 -255 -85 -422.5t-235 -250
t-345 -82.5zM757 236q103 0 172.5 45t105 124t36.5 182l-618 2q0 -104 35 -184t103 -124.5t166 -44.5z" />
    <glyph glyph-name="florin" unicode="&#x192;" horiz-adv-x="1038" 
d="M-55 -335l29 196h119q60 1 88 29.5t41 108.5l147 832h-168l36 203h167l26 149q23 125 109.5 194t217.5 69h238l-32 -194h-132q-43 0 -79 -34.5t-45 -85.5l-17 -98h225l-37 -203h-217l-157 -897q-22 -125 -108 -197t-221 -72h-230z" />
    <glyph glyph-name="Ohorn" unicode="&#x1a0;" horiz-adv-x="1670" 
d="M763 -20q-205 0 -354.5 89.5t-231 255t-81.5 395.5q0 231 82.5 398t232.5 257.5t352 90.5q148 0 268 -49t206 -142q47 0 79.5 5t54 24t34 62t17.5 119h193q-1 -121 -26.5 -200t-85 -118t-163.5 -42q41 -82 63 -183.5t22 -221.5q0 -229 -80.5 -395t-229.5 -255.5
t-352 -89.5zM763 220q106 0 183.5 50.5t119.5 160t42 285.5q0 181 -42.5 293t-120 164.5t-182.5 52.5t-183 -52.5t-121 -165t-43 -292.5q0 -177 43 -286t121 -159.5t183 -50.5z" />
    <glyph glyph-name="ohorn" unicode="&#x1a1;" horiz-adv-x="1282" 
d="M576 -20q-152 0 -264.5 65t-174 184t-61.5 282t61.5 285t174 190t265.5 68q117 0 210 -39.5t158 -112.5q50 2 81 16t48 58t24 137h192q0 -119 -24 -196.5t-80 -117t-154 -45.5q44 -105 44 -243q0 -156 -59.5 -275.5t-171 -187.5t-269.5 -68zM577 197q77 0 124 45
t68 118.5t21 160.5q0 82 -19 155t-66 118t-128 45q-77 0 -124.5 -42.5t-69.5 -115t-22 -160.5q0 -81 20 -155.5t67 -121.5t129 -47z" />
    <glyph glyph-name="Uhorn" unicode="&#x1af;" horiz-adv-x="1721" 
d="M740 -20q-211 0 -338 70.5t-183.5 200.5t-56.5 310v885h297v-907q0 -162 78 -236.5t203 -74.5q83 0 147 32.5t100.5 101t36.5 177.5v907h295v-172q46 2 74 18t44 61t22 132h193q-2 -132 -32 -214t-101.5 -117t-199.5 -28v-575q0 -175 -57 -303.5t-184.5 -198
t-337.5 -69.5z" />
    <glyph glyph-name="uhorn" unicode="&#x1b0;" horiz-adv-x="1420" 
d="M506 -20q-72 0 -141.5 22t-126.5 65t-91.5 106t-34.5 146v715h292v-678q0 -72 47 -118t138 -46q86 0 136.5 44.5t50.5 124.5v673h289v-133q51 1 82 15.5t48 59.5t23 137h193q-2 -135 -33 -217t-105.5 -116t-207.5 -26v-754h-220l-34 205q-18 -91 -67.5 -139.5t-113 -67
t-124.5 -18.5z" />
    <glyph glyph-name="uni01D4" unicode="&#x1d4;" horiz-adv-x="1190" 
d="M506 -20q-72 0 -141.5 22t-126.5 65t-91.5 106t-34.5 146v715h292v-678q0 -72 47 -118t138 -46q86 0 136.5 44.5t50.5 124.5v673h289v-1034h-220l-34 205q-18 -91 -67.5 -139.5t-113 -67t-124.5 -18.5zM490 1155l-263 261h217l146 -150l132 150h228l-257 -261h-203z" />
    <glyph glyph-name="uni01EA" unicode="&#x1ea;" horiz-adv-x="1521" 
d="M786 -338q-102 0 -160 42t-58 122q0 55 38 102t154 85l204 -5q-105 -39 -145 -72t-40 -74q0 -32 17.5 -48t54.5 -16q46 0 81 13.5t64 30.5v-132q-28 -17 -85.5 -32.5t-124.5 -15.5zM763 -20q-205 0 -354.5 89.5t-231 255t-81.5 395.5q0 231 82.5 398t232.5 257.5
t352 90.5q201 0 350 -90t230.5 -257t81.5 -399q0 -229 -80.5 -395t-229.5 -255.5t-352 -89.5zM763 220q106 0 183.5 50.5t119.5 160t42 285.5q0 181 -42.5 293t-120 164.5t-182.5 52.5t-183 -52.5t-121 -165t-43 -292.5q0 -177 43 -286t121 -159.5t183 -50.5z" />
    <glyph glyph-name="uni01EB" unicode="&#x1eb;" horiz-adv-x="1151" 
d="M585 -336q-102 0 -160 42t-58 123q0 54 38 101t154 86l204 -6q-105 -39 -145 -72t-40 -73q0 -32 17.5 -48t54.5 -16q46 0 81 13.5t64 29.5v-132q-28 -17 -85.5 -32.5t-124.5 -15.5zM576 -20q-152 0 -264.5 65t-174 184t-61.5 282t61.5 285t174 190t265.5 68t265 -66.5
t173 -188.5t61 -288q0 -156 -59.5 -275.5t-171 -187.5t-269.5 -68zM577 197q77 0 124 45t68 118.5t21 160.5q0 82 -19 155t-66 118t-128 45q-77 0 -124.5 -42.5t-69.5 -115t-22 -160.5q0 -81 20 -155.5t67 -121.5t129 -47z" />
    <glyph glyph-name="Aringacute" unicode="&#x1fa;" horiz-adv-x="1453" 
d="M871 1880l-60 -142q55 -22 89.5 -70.5t34.5 -111.5q0 -88 -60.5 -143.5t-148.5 -55.5q-87 0 -147 57t-60 146q0 70 42.5 120t107.5 66l31 134h171zM724 1452q42 0 71.5 31t29.5 71q0 43 -29.5 71t-71.5 28q-39 0 -70 -28t-31 -71q0 -40 31 -71t70 -31zM55 0l517 1446h309
l517 -1446h-291l-118 335h-521l-120 -335h-293zM534 590h384l-191 575z" />
    <glyph glyph-name="aringacute" unicode="&#x1fb;" horiz-adv-x="1133" 
d="M723 1496l-59 -142q55 -22 89.5 -70t34.5 -112q0 -88 -61 -143.5t-148 -55.5t-147.5 57t-60.5 146q0 70 43 120t107 66l32 134h170zM577 1068q42 0 71 31t29 71q0 43 -29 71t-71 28q-39 0 -70 -28t-31 -71q0 -40 31 -71t70 -31zM432 -20q-98 0 -177.5 37t-125.5 107.5
t-46 171.5q0 170 127 258.5t401 91.5l130 2v62q0 71 -41.5 109.5t-129.5 37.5q-63 -1 -120.5 -30t-79.5 -101h-243q6 112 65.5 184.5t160.5 108t231 35.5q158 0 254 -39.5t139.5 -113t43.5 -174.5v-727h-244l-24 178q-53 -112 -132.5 -155t-188.5 -43zM531 172
q39 0 76.5 14.5t67.5 39t47.5 55.5t18.5 64v153l-105 -2q-73 -1 -136 -17.5t-101.5 -53.5t-38.5 -100q0 -72 49.5 -112.5t121.5 -40.5z" />
    <glyph glyph-name="AEacute" unicode="&#x1fc;" horiz-adv-x="2080" 
d="M0 0l774 1446h1181l-1 -243h-685v-355h593v-240h-593v-364h707v-244h-1039v338h-466l-178 -338h-293zM581 590h356v665zM1226 1567l206 291h301l-297 -291h-210z" />
    <glyph glyph-name="aeacute" unicode="&#x1fd;" horiz-adv-x="1827" 
d="M432 -20q-98 0 -177.5 37t-125.5 107.5t-46 171.5q0 170 127.5 258.5t401.5 91.5l130 2v62q0 73 -45 110.5t-127 36.5q-63 -1 -120.5 -31t-79.5 -100h-243q6 107 65.5 180t161 110.5t230.5 37.5t218 -33t138 -93q58 60 138.5 93t180.5 33q158 0 265.5 -66.5t162 -185
t54.5 -273.5v-79h-694q-1 -79 25 -137.5t75.5 -90t119.5 -31.5q75 0 131.5 32t78.5 105h263q-17 -110 -87.5 -188t-170.5 -119t-208 -41q-143 0 -253.5 57t-176.5 161q-26 -68 -81 -117t-138 -75t-193 -26zM531 172q62 0 108.5 28.5t73 72t27.5 87.5v138l-104 -2
q-73 -1 -135.5 -17.5t-101.5 -53.5t-39 -100q0 -72 49.5 -112.5t121.5 -40.5zM1046 624h422q0 62 -23 114t-69.5 82t-116.5 30q-68 0 -115.5 -32.5t-72.5 -84.5t-25 -109zM761 1155l206 291h301l-297 -291h-210z" />
    <glyph glyph-name="Oslashacute" unicode="&#x1fe;" horiz-adv-x="1552" 
d="M172 -27l-129 131l167 172q-52 87 -79 198.5t-27 244.5q0 231 82 398.5t231.5 258t352.5 90.5q136 0 247.5 -41t195.5 -120l162 166l127 -129l-174 -182q51 -87 78 -198t27 -242q0 -229 -81 -395t-230 -255.5t-353 -89.5q-135 0 -246 40t-193 113zM771 215q134 0 208 86
t89 269q8 79 6 159.5t-14 167.5l-531 -564q77 -118 242 -118zM476 538l534 566q-39 67 -98.5 98.5t-141.5 31.5q-139 0 -215 -96t-91 -298q-6 -75 -2.5 -150.5t14.5 -151.5zM659 1567l206 291h301l-297 -291h-210z" />
    <glyph glyph-name="oslashacute" unicode="&#x1ff;" horiz-adv-x="1223" 
d="M147 -15l-96 103l1013 958l95 -102zM625 -20q-152 0 -264.5 65t-174 184t-61.5 282t61.5 285t174 190t265.5 68t265 -66.5t173 -188.5t61 -288q0 -156 -59.5 -275.5t-171 -187.5t-269.5 -68zM626 197q77 0 124 45t68.5 118.5t21.5 160.5q0 82 -19.5 155t-66.5 118
t-128 45q-77 0 -124.5 -42.5t-69.5 -115t-22 -160.5q0 -81 20 -155.5t67 -121.5t129 -47zM497 1155l206 291h301l-297 -291h-210z" />
    <glyph glyph-name="uni0200" unicode="&#x200;" horiz-adv-x="1453" 
d="M55 0l517 1446h309l517 -1446h-291l-118 335h-521l-120 -335h-293zM534 590h384l-191 575zM442 1567l-312 291h275l247 -291h-210zM794 1567l-257 291h267l201 -291h-211z" />
    <glyph glyph-name="uni0201" unicode="&#x201;" horiz-adv-x="1133" 
d="M432 -20q-98 0 -177.5 37t-125.5 107.5t-46 171.5q0 170 127 258.5t401 91.5l130 2v62q0 71 -41.5 109.5t-129.5 37.5q-63 -1 -120.5 -30t-79.5 -101h-243q6 112 65.5 184.5t160.5 108t231 35.5q158 0 254 -39.5t139.5 -113t43.5 -174.5v-727h-244l-24 178
q-53 -112 -132.5 -155t-188.5 -43zM531 172q39 0 76.5 14.5t67.5 39t47.5 55.5t18.5 64v153l-105 -2q-73 -1 -136 -17.5t-101.5 -53.5t-38.5 -100q0 -72 49.5 -112.5t121.5 -40.5zM302 1155l-312 291h275l247 -291h-210zM654 1155l-257 291h267l201 -291h-211z" />
    <glyph glyph-name="uni0202" unicode="&#x202;" horiz-adv-x="1453" 
d="M55 0l517 1446h309l517 -1446h-291l-118 335h-521l-120 -335h-293zM534 590h384l-191 575zM374 1592q18 85 69 141.5t124 85t157 28.5q85 0 158.5 -29t125 -85.5t67.5 -140.5h-183q-16 49 -60 81t-108 32q-65 0 -107.5 -32t-58.5 -81h-184z" />
    <glyph glyph-name="uni0203" unicode="&#x203;" horiz-adv-x="1133" 
d="M432 -20q-98 0 -177.5 37t-125.5 107.5t-46 171.5q0 170 127 258.5t401 91.5l130 2v62q0 71 -41.5 109.5t-129.5 37.5q-63 -1 -120.5 -30t-79.5 -101h-243q6 112 65.5 184.5t160.5 108t231 35.5q158 0 254 -39.5t139.5 -113t43.5 -174.5v-727h-244l-24 178
q-53 -112 -132.5 -155t-188.5 -43zM531 172q39 0 76.5 14.5t67.5 39t47.5 55.5t18.5 64v153l-105 -2q-73 -1 -136 -17.5t-101.5 -53.5t-38.5 -100q0 -72 49.5 -112.5t121.5 -40.5zM234 1180q18 85 69 141.5t124 85t157 28.5q85 0 158.5 -29t125 -85.5t67.5 -140.5h-183
q-16 49 -60 81t-108 32q-65 0 -107.5 -32t-58.5 -81h-184z" />
    <glyph glyph-name="uni0204" unicode="&#x204;" horiz-adv-x="1269" 
d="M162 0v1446h993l-1 -246h-699v-351h607v-241h-609v-359l712 -1v-248h-1003zM375 1567l-312 291h275l247 -291h-210zM727 1567l-257 291h267l201 -291h-211z" />
    <glyph glyph-name="uni0205" unicode="&#x205;" horiz-adv-x="1153" 
d="M600 -20q-154 0 -270.5 64.5t-181.5 182.5t-65 278q0 155 59.5 279.5t171.5 197t271 72.5q158 0 265 -66.5t162 -185t55 -273.5v-79h-695q0 -79 26 -137.5t75.5 -90t119.5 -31.5q75 0 131 32t79 105h263q-18 -110 -88 -188t-170 -119t-208 -41zM372 624h422
q0 62 -23.5 114t-70 82t-116.5 30q-67 0 -114.5 -32.5t-73 -84.5t-24.5 -109zM302 1155l-312 291h275l247 -291h-210zM654 1155l-257 291h267l201 -291h-211z" />
    <glyph glyph-name="uni0206" unicode="&#x206;" horiz-adv-x="1269" 
d="M162 0v1446h993l-1 -246h-699v-351h607v-241h-609v-359l712 -1v-248h-1003zM307 1592q18 85 69 141.5t124 85t157 28.5q85 0 158.5 -29t125 -85.5t67.5 -140.5h-183q-16 49 -60 81t-108 32q-65 0 -107.5 -32t-58.5 -81h-184z" />
    <glyph glyph-name="uni0207" unicode="&#x207;" horiz-adv-x="1153" 
d="M600 -20q-154 0 -270.5 64.5t-181.5 182.5t-65 278q0 155 59.5 279.5t171.5 197t271 72.5q158 0 265 -66.5t162 -185t55 -273.5v-79h-695q0 -79 26 -137.5t75.5 -90t119.5 -31.5q75 0 131 32t79 105h263q-18 -110 -88 -188t-170 -119t-208 -41zM372 624h422
q0 62 -23.5 114t-70 82t-116.5 30q-67 0 -114.5 -32.5t-73 -84.5t-24.5 -109zM233 1180q18 85 69 141.5t124 85t157 28.5q85 0 158.5 -29t125 -85.5t67.5 -140.5h-183q-16 49 -60 81t-108 32q-65 0 -107.5 -32t-58.5 -81h-184z" />
    <glyph glyph-name="uni0208" unicode="&#x208;" horiz-adv-x="615" 
d="M162 0v1446h291v-1446h-291zM24 1567l-312 291h275l247 -291h-210zM376 1567l-257 291h267l201 -291h-211z" />
    <glyph glyph-name="uni0209" unicode="&#x209;" horiz-adv-x="529" 
d="M125 0v1034h279v-1034h-279zM-16 1155l-312 291h275l247 -291h-210zM336 1155l-257 291h267l201 -291h-211z" />
    <glyph glyph-name="uni020A" unicode="&#x20a;" horiz-adv-x="615" 
d="M162 0v1446h291v-1446h-291zM-44 1592q18 85 69 141.5t124 85t157 28.5q85 0 158.5 -29t125 -85.5t67.5 -140.5h-183q-16 49 -60 81t-108 32q-65 0 -107.5 -32t-58.5 -81h-184z" />
    <glyph glyph-name="uni020B" unicode="&#x20b;" horiz-adv-x="692" 
d="M202 0v1034h279v-1034h-279zM-7 1180q18 85 69 141.5t124 85t157 28.5q85 0 158.5 -29t125 -85.5t67.5 -140.5h-183q-16 49 -60 81t-108 32q-65 0 -107.5 -32t-58.5 -81h-184z" />
    <glyph glyph-name="uni020C" unicode="&#x20c;" horiz-adv-x="1521" 
d="M763 -20q-205 0 -354.5 89.5t-231 255t-81.5 395.5q0 231 82.5 398t232.5 257.5t352 90.5q201 0 350 -90t230.5 -257t81.5 -399q0 -229 -80.5 -395t-229.5 -255.5t-352 -89.5zM763 220q106 0 183.5 50.5t119.5 160t42 285.5q0 181 -42.5 293t-120 164.5t-182.5 52.5
t-183 -52.5t-121 -165t-43 -292.5q0 -177 43 -286t121 -159.5t183 -50.5zM478 1567l-312 291h275l247 -291h-210zM830 1567l-257 291h267l201 -291h-211z" />
    <glyph glyph-name="uni020D" unicode="&#x20d;" horiz-adv-x="1151" 
d="M576 -20q-152 0 -264.5 65t-174 184t-61.5 282t61.5 285t174 190t265.5 68t265 -66.5t173 -188.5t61 -288q0 -156 -59.5 -275.5t-171 -187.5t-269.5 -68zM577 197q77 0 124 45t68 118.5t21 160.5q0 82 -19 155t-66 118t-128 45q-77 0 -124.5 -42.5t-69.5 -115t-22 -160.5
q0 -81 20 -155.5t67 -121.5t129 -47zM292 1155l-312 291h275l247 -291h-210zM644 1155l-257 291h267l201 -291h-211z" />
    <glyph glyph-name="uni020E" unicode="&#x20e;" horiz-adv-x="1521" 
d="M763 -20q-205 0 -354.5 89.5t-231 255t-81.5 395.5q0 231 82.5 398t232.5 257.5t352 90.5q201 0 350 -90t230.5 -257t81.5 -399q0 -229 -80.5 -395t-229.5 -255.5t-352 -89.5zM763 220q106 0 183.5 50.5t119.5 160t42 285.5q0 181 -42.5 293t-120 164.5t-182.5 52.5
t-183 -52.5t-121 -165t-43 -292.5q0 -177 43 -286t121 -159.5t183 -50.5zM409 1592q18 85 69 141.5t124 85t157 28.5q85 0 158.5 -29t125 -85.5t67.5 -140.5h-183q-16 49 -60 81t-108 32q-65 0 -107.5 -32t-58.5 -81h-184z" />
    <glyph glyph-name="uni020F" unicode="&#x20f;" horiz-adv-x="1151" 
d="M576 -20q-152 0 -264.5 65t-174 184t-61.5 282t61.5 285t174 190t265.5 68t265 -66.5t173 -188.5t61 -288q0 -156 -59.5 -275.5t-171 -187.5t-269.5 -68zM577 197q77 0 124 45t68 118.5t21 160.5q0 82 -19 155t-66 118t-128 45q-77 0 -124.5 -42.5t-69.5 -115t-22 -160.5
q0 -81 20 -155.5t67 -121.5t129 -47zM224 1180q18 85 69 141.5t124 85t157 28.5q85 0 158.5 -29t125 -85.5t67.5 -140.5h-183q-16 49 -60 81t-108 32q-65 0 -107.5 -32t-58.5 -81h-184z" />
    <glyph glyph-name="uni0210" unicode="&#x210;" horiz-adv-x="1392" 
d="M162 0v1446h610q173 0 283 -55t162 -152.5t52 -224.5q0 -114 -35.5 -192.5t-93 -130.5t-125.5 -85l269 -606h-303l-235 557h-293v-557h-291zM453 782h267q117 0 185.5 63t68.5 162q0 100 -66 158t-167 58h-288v-441zM395 1567l-312 291h275l247 -291h-210zM747 1567
l-257 291h267l201 -291h-211z" />
    <glyph glyph-name="uni0211" unicode="&#x211;" horiz-adv-x="824" 
d="M125 0v1034h281v-245q25 79 70.5 138.5t110.5 93t147 33.5q14 0 26.5 -1.5t18.5 -4.5v-278q-9 4 -21.5 5t-22.5 2q-86 7 -147 -5t-99 -41t-55 -71t-17 -94v-566h-292zM164 1155l-312 291h275l247 -291h-210zM516 1155l-257 291h267l201 -291h-211z" />
    <glyph glyph-name="uni0212" unicode="&#x212;" horiz-adv-x="1392" 
d="M162 0v1446h610q173 0 283 -55t162 -152.5t52 -224.5q0 -114 -35.5 -192.5t-93 -130.5t-125.5 -85l269 -606h-303l-235 557h-293v-557h-291zM453 782h267q117 0 185.5 63t68.5 162q0 100 -66 158t-167 58h-288v-441zM327 1592q18 85 69 141.5t124 85t157 28.5
q85 0 158.5 -29t125 -85.5t67.5 -140.5h-183q-16 49 -60 81t-108 32q-65 0 -107.5 -32t-58.5 -81h-184z" />
    <glyph glyph-name="uni0213" unicode="&#x213;" horiz-adv-x="824" 
d="M125 0v1034h281v-245q25 79 70.5 138.5t110.5 93t147 33.5q14 0 26.5 -1.5t18.5 -4.5v-278q-9 4 -21.5 5t-22.5 2q-86 7 -147 -5t-99 -41t-55 -71t-17 -94v-566h-292zM96 1153q18 85 69 141.5t124 85t157 28.5q85 0 158.5 -29t125 -85.5t67.5 -140.5h-183q-16 49 -60 81
t-108 32q-65 0 -107.5 -32t-58.5 -81h-184z" />
    <glyph glyph-name="uni0214" unicode="&#x214;" horiz-adv-x="1448" 
d="M740 -20q-211 0 -338 70.5t-183.5 200.5t-56.5 310v885h297v-907q0 -162 78 -236.5t203 -74.5q83 0 147 32.5t100.5 101t36.5 177.5v907h295v-895q0 -175 -57 -303.5t-184.5 -198t-337.5 -69.5zM457 1567l-312 291h275l247 -291h-210zM809 1567l-257 291h267l201 -291
h-211z" />
    <glyph glyph-name="uni0215" unicode="&#x215;" horiz-adv-x="1190" 
d="M506 -20q-72 0 -141.5 22t-126.5 65t-91.5 106t-34.5 146v715h292v-678q0 -72 47 -118t138 -46q86 0 136.5 44.5t50.5 124.5v673h289v-1034h-220l-34 205q-18 -91 -67.5 -139.5t-113 -67t-124.5 -18.5zM307 1155l-312 291h275l247 -291h-210zM659 1155l-257 291h267
l201 -291h-211z" />
    <glyph glyph-name="uni0216" unicode="&#x216;" horiz-adv-x="1448" 
d="M740 -20q-211 0 -338 70.5t-183.5 200.5t-56.5 310v885h297v-907q0 -162 78 -236.5t203 -74.5q83 0 147 32.5t100.5 101t36.5 177.5v907h295v-895q0 -175 -57 -303.5t-184.5 -198t-337.5 -69.5zM388 1592q18 85 69 141.5t124 85t157 28.5q85 0 158.5 -29t125 -85.5
t67.5 -140.5h-183q-16 49 -60 81t-108 32q-65 0 -107.5 -32t-58.5 -81h-184z" />
    <glyph glyph-name="uni0217" unicode="&#x217;" horiz-adv-x="1190" 
d="M506 -20q-72 0 -141.5 22t-126.5 65t-91.5 106t-34.5 146v715h292v-678q0 -72 47 -118t138 -46q86 0 136.5 44.5t50.5 124.5v673h289v-1034h-220l-34 205q-18 -91 -67.5 -139.5t-113 -67t-124.5 -18.5zM239 1180q18 85 69 141.5t124 85t157 28.5q85 0 158.5 -29
t125 -85.5t67.5 -140.5h-183q-16 49 -60 81t-108 32q-65 0 -107.5 -32t-58.5 -81h-184z" />
    <glyph glyph-name="uni0218" unicode="&#x218;" horiz-adv-x="1384" 
d="M704 -20q-108 0 -211 27t-188 81t-139.5 135t-65.5 190h299q15 -66 57.5 -111t110 -69t154.5 -24q69 0 131 20t101 61t39 103q0 74 -54 111.5t-147 59.5l-271 59q-115 24 -200.5 74.5t-131.5 132t-46 198.5q0 135 74.5 233t203 150.5t288.5 52.5q181 0 305.5 -58.5
t190.5 -158t67 -221.5h-292q-8 75 -46 120.5t-97.5 66t-135.5 20.5q-131 0 -191 -53t-60 -123q0 -66 45.5 -106.5t146.5 -61.5l251 -54q140 -27 227 -85.5t127 -141.5t40 -186q0 -131 -74.5 -230.5t-205.5 -155.5t-302 -56zM554 -440l92 149l-80 10v187h248v-156l-156 -190
h-104z" />
    <glyph glyph-name="uni0219" unicode="&#x219;" horiz-adv-x="1054" 
d="M541 -20q-108 0 -207.5 35.5t-169 112t-87.5 198.5h252q14 -55 48.5 -87t78.5 -45.5t84 -13.5q84 0 135.5 26.5t51.5 81.5q0 42 -30.5 67t-100.5 38l-182 38q-137 29 -220.5 98.5t-84.5 197.5q-1 93 48.5 167t147 117t238.5 43q191 0 305.5 -84t116.5 -237h-244
q-11 60 -59.5 92.5t-122.5 32.5q-75 0 -124 -27t-49 -82q0 -41 40 -64.5t124 -40.5l168 -38q87 -21 141.5 -57.5t84.5 -79.5t41.5 -86.5t11.5 -78.5q0 -103 -55 -175.5t-153 -110.5t-228 -38zM398 -440l92 149l-80 10v187h248v-156l-156 -190h-104z" />
    <glyph glyph-name="uni021A" unicode="&#x21a;" horiz-adv-x="1232" 
d="M475 0v1186h-437v260h1157v-260h-427v-1186h-293zM499 -439l92 149l-80 10v187h248v-156l-156 -190h-104z" />
    <glyph glyph-name="uni021B" unicode="&#x21b;" horiz-adv-x="833" 
d="M571 -11q-137 0 -211.5 35t-103 98t-28.5 146v563h-168v203h177l74 312h208v-311h230v-204h-230l2 -551q0 -38 9.5 -56.5t30 -24t52.5 -5.5h139v-180q-21 -9 -63 -17t-118 -8zM350 -428l92 149l-80 10v187h248v-156l-156 -190h-104z" />
    <glyph glyph-name="uni0237" unicode="&#x237;" horiz-adv-x="575" 
d="M100 -332q-81 0 -106 12.5t-25 16.5l-1 195l79 8q62 8 86.5 34t24.5 76v1024h292v-1027q0 -169 -83 -254t-267 -85z" />
    <glyph glyph-name="uni0259" unicode="&#x259;" horiz-adv-x="1153" 
d="M568 -20q-158 0 -265.5 67t-162 185t-54.5 273v79h694q1 79 -25 137.5t-75.5 90t-119.5 31.5q-75 0 -131.5 -32t-78.5 -105h-263q18 110 88 188t170.5 119t207.5 41q154 0 270 -64t181 -182t65 -279q0 -155 -59 -279.5t-171 -197t-271 -72.5zM568 184q68 0 115.5 33
t72.5 84.5t25 109.5h-422q0 -63 23 -114.5t69.5 -82t116.5 -30.5z" />
    <glyph glyph-name="uni02BB" unicode="&#x2bb;" horiz-adv-x="509" 
d="M100 907v248q0 81 40 152.5t107 110t148 21.5v-85l-22 -3q-42 -5 -81.5 -42t-39.5 -92v-18l143 -12v-280h-295z" />
    <glyph glyph-name="uni02BC" unicode="&#x2bc;" horiz-adv-x="509" 
d="M100 912v86l22 2q44 6 83 43t39 91v18l-144 12v280h295v-248q0 -81 -39.5 -152t-107 -109.5t-148.5 -22.5z" />
    <glyph glyph-name="circumflex" unicode="&#x2c6;" horiz-adv-x="757" 
d="M17 1155l264 259h202l257 -259h-228l-132 140l-146 -140h-217z" />
    <glyph glyph-name="caron" unicode="&#x2c7;" horiz-adv-x="776" 
d="M280 1155l-263 261h217l146 -150l132 150h228l-257 -261h-203z" />
    <glyph glyph-name="breve" unicode="&#x2d8;" horiz-adv-x="762" 
d="M381 1156q-84 0 -157.5 28.5t-124.5 85.5t-68 141h184q15 -50 58 -81.5t108 -31.5q64 0 107.5 31.5t60.5 81.5h183q-17 -84 -68 -140.5t-124.5 -85.5t-158.5 -29z" />
    <glyph glyph-name="dotaccent" unicode="&#x2d9;" horiz-adv-x="299" 
d="M10 1208v238h279v-238h-279z" />
    <glyph glyph-name="ring" unicode="&#x2da;" horiz-adv-x="516" 
d="M252 1120q-91 0 -154 64t-63 157q0 88 64 149t153 61q60 0 109.5 -28.5t79 -77t29.5 -108.5q0 -91 -63.5 -154t-154.5 -63zM250 1234q42 0 70.5 31t28.5 71q0 43 -28.5 71t-70.5 28q-41 0 -71.5 -28t-30.5 -71q0 -40 30.5 -71t71.5 -31z" />
    <glyph glyph-name="ogonek" unicode="&#x2db;" horiz-adv-x="509" 
d="M252 -336q-102 0 -159.5 42t-57.5 122q0 55 37.5 101.5t154.5 85.5l204 -5q-106 -39 -145.5 -72t-39.5 -74q0 -32 17 -48t55 -16q46 0 81 13.5t64 30.5v-132q-28 -17 -85.5 -32.5t-125.5 -15.5z" />
    <glyph glyph-name="tilde" unicode="&#x2dc;" horiz-adv-x="831" 
d="M112 1191l-45 153q36 37 80 64t112 27q56 0 106.5 -15t97 -30.5t91.5 -15.5q53 0 94 22.5t73 46.5l36 -173q-31 -25 -83 -47.5t-119 -22.5q-56 0 -101.5 14t-89.5 27.5t-95 13.5t-84.5 -15.5t-72.5 -48.5z" />
    <glyph glyph-name="hungarumlaut" unicode="&#x2dd;" horiz-adv-x="895" 
d="M363 1155l247 291h275l-311 -291h-211zM10 1155l202 291h266l-257 -291h-211z" />
    <glyph glyph-name="gravecomb" unicode="&#x300;" 
d="M307 1155l-296 291h301l206 -291h-211z" />
    <glyph glyph-name="acutecomb" unicode="&#x301;" 
d="M10 1155l206 291h301l-297 -291h-210z" />
    <glyph glyph-name="uni0302" unicode="&#x302;" 
d="M17 1155l264 259h202l257 -259h-228l-132 140l-146 -140h-217z" />
    <glyph glyph-name="tildecomb" unicode="&#x303;" 
d="M112 1191l-45 153q36 37 80 64t112 27q56 0 106.5 -15t97 -30.5t91.5 -15.5q53 0 94 22.5t73 46.5l36 -173q-31 -25 -83 -47.5t-119 -22.5q-56 0 -101.5 14t-89.5 27.5t-95 13.5t-84.5 -15.5t-72.5 -48.5z" />
    <glyph glyph-name="uni0304" unicode="&#x304;" 
d="M35 1205v187h703v-187h-703z" />
    <glyph glyph-name="uni0306" unicode="&#x306;" 
d="M381 1156q-84 0 -157.5 28.5t-124.5 85.5t-68 141h184q15 -50 58 -81.5t108 -31.5q64 0 107.5 31.5t60.5 81.5h183q-17 -84 -68 -140.5t-124.5 -85.5t-158.5 -29z" />
    <glyph glyph-name="uni0307" unicode="&#x307;" 
d="M10 1208v238h279v-238h-279z" />
    <glyph glyph-name="uni0308" unicode="&#x308;" 
d="M476 1208l3 238h273l-2 -238h-274zM10 1208l3 238h273l-2 -238h-274z" />
    <glyph glyph-name="hookabovecomb" unicode="&#x309;" 
d="M666 1162l-69 108q40 25 53.5 58.5t-7.5 66.5q-18 30 -57 32t-75 -22l-68 106q91 59 180.5 44.5t134.5 -85.5q55 -85 32.5 -166.5t-124.5 -141.5z" />
    <glyph glyph-name="uni030A" unicode="&#x30a;" 
d="M252 1120q-91 0 -154 64t-63 157q0 88 64 149t153 61q60 0 109.5 -28.5t79 -77t29.5 -108.5q0 -91 -63.5 -154t-154.5 -63zM250 1234q42 0 70.5 31t28.5 71q0 43 -28.5 71t-70.5 28q-41 0 -71.5 -28t-30.5 -71q0 -40 30.5 -71t71.5 -31z" />
    <glyph glyph-name="uni030B" unicode="&#x30b;" 
d="M363 1155l247 291h275l-311 -291h-211zM10 1155l202 291h266l-257 -291h-211z" />
    <glyph glyph-name="uni030C" unicode="&#x30c;" 
d="M280 1155l-263 261h217l146 -150l132 150h228l-257 -261h-203z" />
    <glyph glyph-name="uni030F" unicode="&#x30f;" 
d="M322 1155l-312 291h275l247 -291h-210zM674 1155l-257 291h267l201 -291h-211z" />
    <glyph glyph-name="uni0311" unicode="&#x311;" 
d="M20 1180q18 85 69 141.5t124 85t157 28.5q85 0 158.5 -29t125 -85.5t67.5 -140.5h-183q-16 49 -60 81t-108 32q-65 0 -107.5 -32t-58.5 -81h-184z" />
    <glyph glyph-name="uni0312" unicode="&#x312;" 
d="M114 1155v177l145 195h107l-89 -162l81 -9v-201h-244z" />
    <glyph glyph-name="uni031B" unicode="&#x31b;" 
d="M0 911v148q50 -1 85 2.5t57.5 22t36 61t18.5 121.5h192q-1 -142 -36 -225.5t-119 -114.5t-234 -15z" />
    <glyph glyph-name="dotbelowcomb" unicode="&#x323;" 
d="M10 -398v238h279v-238h-279z" />
    <glyph glyph-name="uni0326" unicode="&#x326;" 
d="M5 -440l92 149l-80 10v187h248v-156l-156 -190h-104z" />
    <glyph glyph-name="uni0327" unicode="&#x327;" 
d="M260 -425q-63 0 -121.5 12t-108.5 42l40 98q31 -19 70.5 -34t83.5 -15q48 0 74 16.5t26 45.5q0 39 -38 60t-132 22q-12 0 -16.5 3.5t0.5 15.5l73 169h130l-45 -117q76 -2 120 -26t63.5 -59.5t19.5 -70.5q0 -51 -33 -87.5t-87.5 -55.5t-118.5 -19z" />
    <glyph glyph-name="uni0328" unicode="&#x328;" 
d="M252 -336q-102 0 -159.5 42t-57.5 122q0 55 37.5 101.5t154.5 85.5l204 -5q-106 -39 -145.5 -72t-39.5 -74q0 -32 17 -48t55 -16q46 0 81 13.5t64 30.5v-132q-28 -17 -85.5 -32.5t-125.5 -15.5z" />
    <glyph glyph-name="pi" unicode="&#x3c0;" horiz-adv-x="1349" 
d="M114 0q22 84 41.5 186t35 211.5t24.5 215.5t9 198q0 20 -17 20h-161v203h1243v-203h-189v-831h-280l-1 831h-315q0 -97 -9.5 -211.5t-25.5 -229.5t-37.5 -216.5t-45.5 -173.5h-272z" />
    <glyph glyph-name="uni1E0C" unicode="&#x1e0c;" horiz-adv-x="1440" 
d="M162 0v1446h61.5h119t137 -0.5t114.5 -1.5q263 -6 429 -94t243.5 -246t77.5 -374q0 -225 -82 -388.5t-250.5 -252.5t-427.5 -89h-422zM456 236h134q124 0 225.5 48t162.5 157t61 291q0 169 -54 274.5t-154 154.5t-237 49h-138v-974zM569 -398v238h279v-238h-279z" />
    <glyph glyph-name="uni1E0D" unicode="&#x1e0d;" horiz-adv-x="1217" 
d="M516 -20q-208 0 -324 143.5t-116 399.5q0 162 47 281t139 184.5t225 65.5q56 0 104.5 -12.5t88.5 -34.5t70 -51t49 -62v592h293v-1486h-212l-33 212q-15 -43 -39.5 -84t-63.5 -74.5t-95.5 -53.5t-132.5 -20zM580 190q110 0 164.5 77t54.5 260q-1 106 -25 176t-71.5 104.5
t-120.5 34.5q-95 0 -158 -72.5t-63 -242.5q0 -173 59 -255t160 -82zM406 -398v238h279v-238h-279z" />
    <glyph glyph-name="uni1E24" unicode="&#x1e24;" horiz-adv-x="1540" 
d="M162 0v1446h291v-580h633v580h292v-1446h-292v621h-633v-621h-291zM639 -398v238h279v-238h-279z" />
    <glyph glyph-name="uni1E25" unicode="&#x1e25;" horiz-adv-x="1185" 
d="M125 0v1486h290v-601q25 36 63 71.5t95 59.5t139 24q99 0 180.5 -38.5t131 -111.5t49.5 -178v-712h-293v669q0 70 -50.5 107.5t-122.5 37.5q-47 0 -91 -17t-71.5 -51.5t-27.5 -85.5v-660h-292zM468 -398v238h279v-238h-279z" />
    <glyph glyph-name="uni1E44" unicode="&#x1e44;" horiz-adv-x="1564" 
d="M162 0v1446h289l660 -957v957h292v-1446h-263l-687 995v-995h-291zM642 1620v238h279v-238h-279z" />
    <glyph glyph-name="uni1E45" unicode="&#x1e45;" horiz-adv-x="1186" 
d="M125 0v1034h287v-146q24 38 62.5 73.5t97.5 58.5t140 23q95 0 177.5 -37t133.5 -116.5t51 -207.5v-682h-292v646q0 84 -50 126t-122 42q-48 0 -92.5 -17t-72.5 -51t-28 -84v-662h-292zM465 1208v238h279v-238h-279z" />
    <glyph glyph-name="uni1E5A" unicode="&#x1e5a;" horiz-adv-x="1392" 
d="M162 0v1446h610q173 0 283 -55t162 -152.5t52 -224.5q0 -114 -35.5 -192.5t-93 -130.5t-125.5 -85l269 -606h-303l-235 557h-293v-557h-291zM453 782h267q117 0 185.5 63t68.5 162q0 100 -66 158t-167 58h-288v-441zM559 -398v238h279v-238h-279z" />
    <glyph glyph-name="uni1E5B" unicode="&#x1e5b;" horiz-adv-x="824" 
d="M125 0v1034h281v-245q25 79 70.5 138.5t110.5 93t147 33.5q14 0 26.5 -1.5t18.5 -4.5v-278q-9 4 -21.5 5t-22.5 2q-86 7 -147 -5t-99 -41t-55 -71t-17 -94v-566h-292zM131 -398v238h279v-238h-279z" />
    <glyph glyph-name="uni1E62" unicode="&#x1e62;" horiz-adv-x="1384" 
d="M704 -20q-108 0 -211 27t-188 81t-139.5 135t-65.5 190h299q15 -66 57.5 -111t110 -69t154.5 -24q69 0 131 20t101 61t39 103q0 74 -54 111.5t-147 59.5l-271 59q-115 24 -200.5 74.5t-131.5 132t-46 198.5q0 135 74.5 233t203 150.5t288.5 52.5q181 0 305.5 -58.5
t190.5 -158t67 -221.5h-292q-8 75 -46 120.5t-97.5 66t-135.5 20.5q-131 0 -191 -53t-60 -123q0 -66 45.5 -106.5t146.5 -61.5l251 -54q140 -27 227 -85.5t127 -141.5t40 -186q0 -131 -74.5 -230.5t-205.5 -155.5t-302 -56zM552 -398v238h279v-238h-279z" />
    <glyph glyph-name="uni1E63" unicode="&#x1e63;" horiz-adv-x="1054" 
d="M541 -20q-108 0 -207.5 35.5t-169 112t-87.5 198.5h252q14 -55 48.5 -87t78.5 -45.5t84 -13.5q84 0 135.5 26.5t51.5 81.5q0 42 -30.5 67t-100.5 38l-182 38q-137 29 -220.5 98.5t-84.5 197.5q-1 93 48.5 167t147 117t238.5 43q191 0 305.5 -84t116.5 -237h-244
q-11 60 -59.5 92.5t-122.5 32.5q-75 0 -124 -27t-49 -82q0 -41 40 -64.5t124 -40.5l168 -38q87 -21 141.5 -57.5t84.5 -79.5t41.5 -86.5t11.5 -78.5q0 -103 -55 -175.5t-153 -110.5t-228 -38zM396 -398v238h279v-238h-279z" />
    <glyph glyph-name="uni1E6C" unicode="&#x1e6c;" horiz-adv-x="1232" 
d="M475 0v1186h-437v260h1157v-260h-427v-1186h-293zM496 -397v238h279v-238h-279z" />
    <glyph glyph-name="uni1E6D" unicode="&#x1e6d;" horiz-adv-x="833" 
d="M571 -11q-137 0 -211.5 35t-103 98t-28.5 146v563h-168v203h177l74 312h208v-311h230v-204h-230l2 -551q0 -38 9.5 -56.5t30 -24t52.5 -5.5h139v-180q-21 -9 -63 -17t-118 -8zM348 -386v238h279v-238h-279z" />
    <glyph glyph-name="Wgrave" unicode="&#x1e80;" horiz-adv-x="1937" 
d="M464 0l-426 1446h286l269 -955l269 955h211l272 -955l269 955h285l-427 -1446h-233l-272 945l-274 -945h-229zM859 1567l-296 291h301l206 -291h-211z" />
    <glyph glyph-name="wgrave" unicode="&#x1e81;" horiz-adv-x="1577" 
d="M365 0l-335 1034h258l198 -641h7l190 641h209l192 -641h8l192 641h264l-340 -1034h-233l-192 626l-193 -626h-225zM689 1155l-296 291h301l206 -291h-211z" />
    <glyph glyph-name="Wacute" unicode="&#x1e82;" horiz-adv-x="1937" 
d="M464 0l-426 1446h286l269 -955l269 955h211l272 -955l269 955h285l-427 -1446h-233l-272 945l-274 -945h-229zM858 1567l206 291h301l-297 -291h-210z" />
    <glyph glyph-name="wacute" unicode="&#x1e83;" horiz-adv-x="1577" 
d="M365 0l-335 1034h258l198 -641h7l190 641h209l192 -641h8l192 641h264l-340 -1034h-233l-192 626l-193 -626h-225zM688 1155l206 291h301l-297 -291h-210z" />
    <glyph glyph-name="Wdieresis" unicode="&#x1e84;" horiz-adv-x="1937" 
d="M464 0l-426 1446h286l269 -955l269 955h211l272 -955l269 955h285l-427 -1446h-233l-272 945l-274 -945h-229zM1062 1620l3 238h273l-2 -238h-274zM596 1620l3 238h273l-2 -238h-274z" />
    <glyph glyph-name="wdieresis" unicode="&#x1e85;" horiz-adv-x="1577" 
d="M365 0l-335 1034h258l198 -641h7l190 641h209l192 -641h8l192 641h264l-340 -1034h-233l-192 626l-193 -626h-225zM892 1208l3 238h273l-2 -238h-274zM426 1208l3 238h273l-2 -238h-274z" />
    <glyph glyph-name="uni1E92" unicode="&#x1e92;" horiz-adv-x="1339" 
d="M108 0v142l734 1060h-685v244h1101v-136l-744 -1063h736v-247h-1142zM556 -398v238h279v-238h-279z" />
    <glyph glyph-name="uni1E93" unicode="&#x1e93;" horiz-adv-x="993" 
d="M63 0v163l510 667h-484v204h838v-163l-511 -667h514v-204h-867zM362 -398v238h279v-238h-279z" />
    <glyph glyph-name="uni1EA0" unicode="&#x1ea0;" horiz-adv-x="1453" 
d="M55 0l517 1446h309l517 -1446h-291l-118 335h-521l-120 -335h-293zM534 590h384l-191 575zM588 -398v238h279v-238h-279z" />
    <glyph glyph-name="uni1EA1" unicode="&#x1ea1;" horiz-adv-x="1133" 
d="M432 -20q-98 0 -177.5 37t-125.5 107.5t-46 171.5q0 170 127 258.5t401 91.5l130 2v62q0 71 -41.5 109.5t-129.5 37.5q-63 -1 -120.5 -30t-79.5 -101h-243q6 112 65.5 184.5t160.5 108t231 35.5q158 0 254 -39.5t139.5 -113t43.5 -174.5v-727h-244l-24 178
q-53 -112 -132.5 -155t-188.5 -43zM531 172q39 0 76.5 14.5t67.5 39t47.5 55.5t18.5 64v153l-105 -2q-73 -1 -136 -17.5t-101.5 -53.5t-38.5 -100q0 -72 49.5 -112.5t121.5 -40.5zM443 -398v238h279v-238h-279z" />
    <glyph glyph-name="uni1EA2" unicode="&#x1ea2;" horiz-adv-x="1453" 
d="M55 0l517 1446h309l517 -1446h-291l-118 335h-521l-120 -335h-293zM534 590h384l-191 575zM810 1566l-69 108q40 25 53.5 58.5t-7.5 66.5q-18 30 -57 32t-75 -22l-68 106q91 59 180.5 44.5t134.5 -85.5q55 -85 32.5 -166.5t-124.5 -141.5z" />
    <glyph glyph-name="uni1EA3" unicode="&#x1ea3;" horiz-adv-x="1133" 
d="M432 -20q-98 0 -177.5 37t-125.5 107.5t-46 171.5q0 170 127 258.5t401 91.5l130 2v62q0 71 -41.5 109.5t-129.5 37.5q-63 -1 -120.5 -30t-79.5 -101h-243q6 112 65.5 184.5t160.5 108t231 35.5q158 0 254 -39.5t139.5 -113t43.5 -174.5v-727h-244l-24 178
q-53 -112 -132.5 -155t-188.5 -43zM531 172q39 0 76.5 14.5t67.5 39t47.5 55.5t18.5 64v153l-105 -2q-73 -1 -136 -17.5t-101.5 -53.5t-38.5 -100q0 -72 49.5 -112.5t121.5 -40.5zM669 1154l-69 108q40 25 53.5 58.5t-7.5 66.5q-18 30 -57 32t-75 -22l-68 106
q91 59 180.5 44.5t134.5 -85.5q55 -85 32.5 -166.5t-124.5 -141.5z" />
    <glyph glyph-name="uni1EA4" unicode="&#x1ea4;" horiz-adv-x="1453" 
d="M55 0l517 1446h309l517 -1446h-291l-118 335h-521l-120 -335h-293zM534 590h384l-191 575zM363 1567l264 259h202l257 -259h-228l-132 140l-146 -140h-217zM954 1810l152 262h225l-225 -262h-152z" />
    <glyph glyph-name="uni1EA5" unicode="&#x1ea5;" horiz-adv-x="1133" 
d="M432 -20q-98 0 -177.5 37t-125.5 107.5t-46 171.5q0 170 127 258.5t401 91.5l130 2v62q0 71 -41.5 109.5t-129.5 37.5q-63 -1 -120.5 -30t-79.5 -101h-243q6 112 65.5 184.5t160.5 108t231 35.5q158 0 254 -39.5t139.5 -113t43.5 -174.5v-727h-244l-24 178
q-53 -112 -132.5 -155t-188.5 -43zM531 172q39 0 76.5 14.5t67.5 39t47.5 55.5t18.5 64v153l-105 -2q-73 -1 -136 -17.5t-101.5 -53.5t-38.5 -100q0 -72 49.5 -112.5t121.5 -40.5zM222 1155l264 259h202l257 -259h-228l-132 140l-146 -140h-217zM813 1398l152 262h225
l-225 -262h-152z" />
    <glyph glyph-name="uni1EA6" unicode="&#x1ea6;" horiz-adv-x="1453" 
d="M55 0l517 1446h309l517 -1446h-291l-118 335h-521l-120 -335h-293zM534 590h384l-191 575zM363 1567l264 259h202l257 -259h-228l-132 140l-146 -140h-217zM1041 1810l-227 261h226l158 -261h-157z" />
    <glyph glyph-name="uni1EA7" unicode="&#x1ea7;" horiz-adv-x="1133" 
d="M432 -20q-98 0 -177.5 37t-125.5 107.5t-46 171.5q0 170 127 258.5t401 91.5l130 2v62q0 71 -41.5 109.5t-129.5 37.5q-63 -1 -120.5 -30t-79.5 -101h-243q6 112 65.5 184.5t160.5 108t231 35.5q158 0 254 -39.5t139.5 -113t43.5 -174.5v-727h-244l-24 178
q-53 -112 -132.5 -155t-188.5 -43zM531 172q39 0 76.5 14.5t67.5 39t47.5 55.5t18.5 64v153l-105 -2q-73 -1 -136 -17.5t-101.5 -53.5t-38.5 -100q0 -72 49.5 -112.5t121.5 -40.5zM222 1155l264 259h202l257 -259h-228l-132 140l-146 -140h-217zM900 1398l-227 261h226
l158 -261h-157z" />
    <glyph glyph-name="uni1EA8" unicode="&#x1ea8;" horiz-adv-x="1453" 
d="M55 0l517 1446h309l517 -1446h-291l-118 335h-521l-120 -335h-293zM534 590h384l-191 575zM369 1567l264 259h202l257 -259h-228l-132 140l-146 -140h-217zM1025 1765l-69 109q40 25 53.5 58t-7.5 67q-18 30 -57 32t-75 -22l-69 106q92 59 181.5 44.5t134.5 -85.5
q55 -85 32.5 -166.5t-124.5 -142.5z" />
    <glyph glyph-name="uni1EA9" unicode="&#x1ea9;" horiz-adv-x="1133" 
d="M432 -20q-98 0 -177.5 37t-125.5 107.5t-46 171.5q0 170 127 258.5t401 91.5l130 2v62q0 71 -41.5 109.5t-129.5 37.5q-63 -1 -120.5 -30t-79.5 -101h-243q6 112 65.5 184.5t160.5 108t231 35.5q158 0 254 -39.5t139.5 -113t43.5 -174.5v-727h-244l-24 178
q-53 -112 -132.5 -155t-188.5 -43zM531 172q39 0 76.5 14.5t67.5 39t47.5 55.5t18.5 64v153l-105 -2q-73 -1 -136 -17.5t-101.5 -53.5t-38.5 -100q0 -72 49.5 -112.5t121.5 -40.5zM229 1155l264 259h202l257 -259h-228l-132 140l-146 -140h-217zM885 1353l-69 109
q40 25 53.5 58t-7.5 67q-18 30 -57 32t-75 -22l-69 106q92 59 181.5 44.5t134.5 -85.5q55 -85 32.5 -166.5t-124.5 -142.5z" />
    <glyph glyph-name="uni1EAA" unicode="&#x1eaa;" horiz-adv-x="1453" 
d="M55 0l517 1446h309l517 -1446h-291l-118 335h-521l-120 -335h-293zM534 590h384l-191 575zM365 1567l264 259h202l257 -259h-228l-132 140l-146 -140h-217zM425 1918l-44 153q36 38 80 65t112 27q56 0 106 -15.5t97 -31t92 -15.5q52 0 93.5 22.5t72.5 47.5l37 -174
q-32 -25 -83.5 -47.5t-118.5 -22.5q-56 0 -102 14.5t-90 28t-95 13.5q-50 0 -83.5 -16t-73.5 -49z" />
    <glyph glyph-name="uni1EAB" unicode="&#x1eab;" horiz-adv-x="1133" 
d="M432 -20q-98 0 -177.5 37t-125.5 107.5t-46 171.5q0 170 127 258.5t401 91.5l130 2v62q0 71 -41.5 109.5t-129.5 37.5q-63 -1 -120.5 -30t-79.5 -101h-243q6 112 65.5 184.5t160.5 108t231 35.5q158 0 254 -39.5t139.5 -113t43.5 -174.5v-727h-244l-24 178
q-53 -112 -132.5 -155t-188.5 -43zM531 172q39 0 76.5 14.5t67.5 39t47.5 55.5t18.5 64v153l-105 -2q-73 -1 -136 -17.5t-101.5 -53.5t-38.5 -100q0 -72 49.5 -112.5t121.5 -40.5zM225 1155l264 259h202l257 -259h-228l-132 140l-146 -140h-217zM285 1506l-44 153
q36 38 80 65t112 27q56 0 106 -15.5t97 -31t92 -15.5q52 0 93.5 22.5t72.5 47.5l37 -174q-32 -25 -83.5 -47.5t-118.5 -22.5q-56 0 -102 14.5t-90 28t-95 13.5q-50 0 -83.5 -16t-73.5 -49z" />
    <glyph glyph-name="uni1EAC" unicode="&#x1eac;" horiz-adv-x="1453" 
d="M55 0l517 1446h309l517 -1446h-291l-118 335h-521l-120 -335h-293zM534 590h384l-191 575zM588 -398v238h279v-238h-279zM363 1567l264 259h202l257 -259h-228l-132 140l-146 -140h-217z" />
    <glyph glyph-name="uni1EAD" unicode="&#x1ead;" horiz-adv-x="1133" 
d="M432 -20q-98 0 -177.5 37t-125.5 107.5t-46 171.5q0 170 127 258.5t401 91.5l130 2v62q0 71 -41.5 109.5t-129.5 37.5q-63 -1 -120.5 -30t-79.5 -101h-243q6 112 65.5 184.5t160.5 108t231 35.5q158 0 254 -39.5t139.5 -113t43.5 -174.5v-727h-244l-24 178
q-53 -112 -132.5 -155t-188.5 -43zM531 172q39 0 76.5 14.5t67.5 39t47.5 55.5t18.5 64v153l-105 -2q-73 -1 -136 -17.5t-101.5 -53.5t-38.5 -100q0 -72 49.5 -112.5t121.5 -40.5zM443 -398v238h279v-238h-279zM222 1155l264 259h202l257 -259h-228l-132 140l-146 -140h-217
z" />
    <glyph glyph-name="uni1EAE" unicode="&#x1eae;" horiz-adv-x="1453" 
d="M55 0l517 1446h309l517 -1446h-291l-118 335h-521l-120 -335h-293zM534 590h384l-191 575zM728 1567q-84 0 -157.5 28.5t-124.5 85.5t-68 141h184q15 -50 58 -81.5t108 -31.5q64 0 107.5 31.5t60.5 81.5h183q-17 -84 -68 -140.5t-124.5 -85.5t-158.5 -29zM649 1880
l152 261h225l-225 -261h-152z" />
    <glyph glyph-name="uni1EAF" unicode="&#x1eaf;" horiz-adv-x="1133" 
d="M432 -20q-98 0 -177.5 37t-125.5 107.5t-46 171.5q0 170 127 258.5t401 91.5l130 2v62q0 71 -41.5 109.5t-129.5 37.5q-63 -1 -120.5 -30t-79.5 -101h-243q6 112 65.5 184.5t160.5 108t231 35.5q158 0 254 -39.5t139.5 -113t43.5 -174.5v-727h-244l-24 178
q-53 -112 -132.5 -155t-188.5 -43zM531 172q39 0 76.5 14.5t67.5 39t47.5 55.5t18.5 64v153l-105 -2q-73 -1 -136 -17.5t-101.5 -53.5t-38.5 -100q0 -72 49.5 -112.5t121.5 -40.5zM588 1155q-84 0 -157.5 28.5t-124.5 85.5t-68 141h184q15 -50 58 -81.5t108 -31.5
q64 0 107.5 31.5t60.5 81.5h183q-17 -84 -68 -140.5t-124.5 -85.5t-158.5 -29zM509 1468l152 261h225l-225 -261h-152z" />
    <glyph glyph-name="uni1EB0" unicode="&#x1eb0;" horiz-adv-x="1453" 
d="M55 0l517 1446h309l517 -1446h-291l-118 335h-521l-120 -335h-293zM534 590h384l-191 575zM728 1567q-84 0 -157.5 28.5t-124.5 85.5t-68 141h184q15 -50 58 -81.5t108 -31.5q64 0 107.5 31.5t60.5 81.5h183q-17 -84 -68 -140.5t-124.5 -85.5t-158.5 -29zM662 1880
l-227 261h226l158 -261h-157z" />
    <glyph glyph-name="uni1EB1" unicode="&#x1eb1;" horiz-adv-x="1133" 
d="M432 -20q-98 0 -177.5 37t-125.5 107.5t-46 171.5q0 170 127 258.5t401 91.5l130 2v62q0 71 -41.5 109.5t-129.5 37.5q-63 -1 -120.5 -30t-79.5 -101h-243q6 112 65.5 184.5t160.5 108t231 35.5q158 0 254 -39.5t139.5 -113t43.5 -174.5v-727h-244l-24 178
q-53 -112 -132.5 -155t-188.5 -43zM531 172q39 0 76.5 14.5t67.5 39t47.5 55.5t18.5 64v153l-105 -2q-73 -1 -136 -17.5t-101.5 -53.5t-38.5 -100q0 -72 49.5 -112.5t121.5 -40.5zM588 1155q-84 0 -157.5 28.5t-124.5 85.5t-68 141h184q15 -50 58 -81.5t108 -31.5
q64 0 107.5 31.5t60.5 81.5h183q-17 -84 -68 -140.5t-124.5 -85.5t-158.5 -29zM522 1468l-227 261h226l158 -261h-157z" />
    <glyph glyph-name="uni1EB2" unicode="&#x1eb2;" horiz-adv-x="1453" 
d="M55 0l517 1446h309l517 -1446h-291l-118 335h-521l-120 -335h-293zM534 590h384l-191 575zM728 1567q-84 0 -157.5 28.5t-124.5 85.5t-68 141h184q15 -50 58 -81.5t108 -31.5q64 0 107.5 31.5t60.5 81.5h183q-17 -84 -68 -140.5t-124.5 -85.5t-158.5 -29zM737 1804
l-69 109q39 25 53 58t-7 67q-18 30 -57 32t-75 -22l-69 106q73 47 149 47q110 0 167 -88q54 -85 31.5 -166.5t-123.5 -142.5z" />
    <glyph glyph-name="uni1EB3" unicode="&#x1eb3;" horiz-adv-x="1133" 
d="M432 -20q-98 0 -177.5 37t-125.5 107.5t-46 171.5q0 170 127 258.5t401 91.5l130 2v62q0 71 -41.5 109.5t-129.5 37.5q-63 -1 -120.5 -30t-79.5 -101h-243q6 112 65.5 184.5t160.5 108t231 35.5q158 0 254 -39.5t139.5 -113t43.5 -174.5v-727h-244l-24 178
q-53 -112 -132.5 -155t-188.5 -43zM531 172q39 0 76.5 14.5t67.5 39t47.5 55.5t18.5 64v153l-105 -2q-73 -1 -136 -17.5t-101.5 -53.5t-38.5 -100q0 -72 49.5 -112.5t121.5 -40.5zM588 1155q-84 0 -157.5 28.5t-124.5 85.5t-68 141h184q15 -50 58 -81.5t108 -31.5
q64 0 107.5 31.5t60.5 81.5h183q-17 -84 -68 -140.5t-124.5 -85.5t-158.5 -29zM597 1392l-69 109q39 25 53 58t-7 67q-18 30 -57 32t-75 -22l-69 106q73 47 149 47q110 0 167 -88q54 -85 31.5 -166.5t-123.5 -142.5z" />
    <glyph glyph-name="uni1EB4" unicode="&#x1eb4;" horiz-adv-x="1453" 
d="M55 0l517 1446h309l517 -1446h-291l-118 335h-521l-120 -335h-293zM534 590h384l-191 575zM728 1567q-84 0 -157.5 28.5t-124.5 85.5t-68 141h184q15 -50 58 -81.5t108 -31.5q64 0 107.5 31.5t60.5 81.5h183q-17 -84 -68 -140.5t-124.5 -85.5t-158.5 -29zM424 1917
l-44 153q36 38 80 65t112 27q56 0 106 -15.5t97 -31t92 -15.5q52 0 93.5 22.5t72.5 47.5l37 -174q-32 -25 -83.5 -47.5t-118.5 -22.5q-56 0 -102 14.5t-90 28t-95 13.5q-50 0 -83.5 -16t-73.5 -49z" />
    <glyph glyph-name="uni1EB5" unicode="&#x1eb5;" horiz-adv-x="1133" 
d="M432 -20q-98 0 -177.5 37t-125.5 107.5t-46 171.5q0 170 127 258.5t401 91.5l130 2v62q0 71 -41.5 109.5t-129.5 37.5q-63 -1 -120.5 -30t-79.5 -101h-243q6 112 65.5 184.5t160.5 108t231 35.5q158 0 254 -39.5t139.5 -113t43.5 -174.5v-727h-244l-24 178
q-53 -112 -132.5 -155t-188.5 -43zM531 172q39 0 76.5 14.5t67.5 39t47.5 55.5t18.5 64v153l-105 -2q-73 -1 -136 -17.5t-101.5 -53.5t-38.5 -100q0 -72 49.5 -112.5t121.5 -40.5zM588 1155q-84 0 -157.5 28.5t-124.5 85.5t-68 141h184q15 -50 58 -81.5t108 -31.5
q64 0 107.5 31.5t60.5 81.5h183q-17 -84 -68 -140.5t-124.5 -85.5t-158.5 -29zM284 1505l-44 153q36 38 80 65t112 27q56 0 106 -15.5t97 -31t92 -15.5q52 0 93.5 22.5t72.5 47.5l37 -174q-32 -25 -83.5 -47.5t-118.5 -22.5q-56 0 -102 14.5t-90 28t-95 13.5
q-50 0 -83.5 -16t-73.5 -49z" />
    <glyph glyph-name="uni1EB6" unicode="&#x1eb6;" horiz-adv-x="1453" 
d="M55 0l517 1446h309l517 -1446h-291l-118 335h-521l-120 -335h-293zM534 590h384l-191 575zM588 -398v238h279v-238h-279zM727 1567q-84 0 -157.5 28.5t-124.5 85.5t-68 141h184q15 -50 58 -81.5t108 -31.5q64 0 107.5 31.5t60.5 81.5h183q-17 -84 -68 -140.5
t-124.5 -85.5t-158.5 -29z" />
    <glyph glyph-name="uni1EB7" unicode="&#x1eb7;" horiz-adv-x="1133" 
d="M432 -20q-98 0 -177.5 37t-125.5 107.5t-46 171.5q0 170 127 258.5t401 91.5l130 2v62q0 71 -41.5 109.5t-129.5 37.5q-63 -1 -120.5 -30t-79.5 -101h-243q6 112 65.5 184.5t160.5 108t231 35.5q158 0 254 -39.5t139.5 -113t43.5 -174.5v-727h-244l-24 178
q-53 -112 -132.5 -155t-188.5 -43zM531 172q39 0 76.5 14.5t67.5 39t47.5 55.5t18.5 64v153l-105 -2q-73 -1 -136 -17.5t-101.5 -53.5t-38.5 -100q0 -72 49.5 -112.5t121.5 -40.5zM443 -398v238h279v-238h-279zM586 1155q-84 0 -157.5 28.5t-124.5 85.5t-68 141h184
q15 -50 58 -81.5t108 -31.5q64 0 107.5 31.5t60.5 81.5h183q-17 -84 -68 -140.5t-124.5 -85.5t-158.5 -29z" />
    <glyph glyph-name="uni1EB8" unicode="&#x1eb8;" horiz-adv-x="1269" 
d="M162 0v1446h993l-1 -246h-699v-351h607v-241h-609v-359l712 -1v-248h-1003zM538 -398v238h279v-238h-279z" />
    <glyph glyph-name="uni1EB9" unicode="&#x1eb9;" horiz-adv-x="1153" 
d="M600 -20q-154 0 -270.5 64.5t-181.5 182.5t-65 278q0 155 59.5 279.5t171.5 197t271 72.5q158 0 265 -66.5t162 -185t55 -273.5v-79h-695q0 -79 26 -137.5t75.5 -90t119.5 -31.5q75 0 131 32t79 105h263q-18 -110 -88 -188t-170 -119t-208 -41zM372 624h422
q0 62 -23.5 114t-70 82t-116.5 30q-67 0 -114.5 -32.5t-73 -84.5t-24.5 -109zM451 -398v238h279v-238h-279z" />
    <glyph glyph-name="uni1EBA" unicode="&#x1eba;" horiz-adv-x="1269" 
d="M162 0v1446h993l-1 -246h-699v-351h607v-241h-609v-359l712 -1v-248h-1003zM743 1566l-69 108q40 25 53.5 58.5t-7.5 66.5q-18 30 -57 32t-75 -22l-68 106q91 59 180.5 44.5t134.5 -85.5q55 -85 32.5 -166.5t-124.5 -141.5z" />
    <glyph glyph-name="uni1EBB" unicode="&#x1ebb;" horiz-adv-x="1153" 
d="M600 -20q-154 0 -270.5 64.5t-181.5 182.5t-65 278q0 155 59.5 279.5t171.5 197t271 72.5q158 0 265 -66.5t162 -185t55 -273.5v-79h-695q0 -79 26 -137.5t75.5 -90t119.5 -31.5q75 0 131 32t79 105h263q-18 -110 -88 -188t-170 -119t-208 -41zM372 624h422
q0 62 -23.5 114t-70 82t-116.5 30q-67 0 -114.5 -32.5t-73 -84.5t-24.5 -109zM669 1154l-69 108q40 25 53.5 58.5t-7.5 66.5q-18 30 -57 32t-75 -22l-68 106q91 59 180.5 44.5t134.5 -85.5q55 -85 32.5 -166.5t-124.5 -141.5z" />
    <glyph glyph-name="uni1EBC" unicode="&#x1ebc;" horiz-adv-x="1269" 
d="M162 0v1446h993l-1 -246h-699v-351h607v-241h-609v-359l712 -1v-248h-1003zM365 1603l-45 153q36 37 80 64t112 27q56 0 106.5 -15t97 -30.5t91.5 -15.5q53 0 94 22.5t73 46.5l36 -173q-31 -25 -83 -47.5t-119 -22.5q-56 0 -101.5 14t-89.5 27.5t-95 13.5t-84.5 -15.5
t-72.5 -48.5z" />
    <glyph glyph-name="uni1EBD" unicode="&#x1ebd;" horiz-adv-x="1153" 
d="M600 -20q-154 0 -270.5 64.5t-181.5 182.5t-65 278q0 155 59.5 279.5t171.5 197t271 72.5q158 0 265 -66.5t162 -185t55 -273.5v-79h-695q0 -79 26 -137.5t75.5 -90t119.5 -31.5q75 0 131 32t79 105h263q-18 -110 -88 -188t-170 -119t-208 -41zM372 624h422
q0 62 -23.5 114t-70 82t-116.5 30q-67 0 -114.5 -32.5t-73 -84.5t-24.5 -109zM291 1191l-45 153q36 37 80 64t112 27q56 0 106.5 -15t97 -30.5t91.5 -15.5q53 0 94 22.5t73 46.5l36 -173q-31 -25 -83 -47.5t-119 -22.5q-56 0 -101.5 14t-89.5 27.5t-95 13.5t-84.5 -15.5
t-72.5 -48.5z" />
    <glyph glyph-name="uni1EBE" unicode="&#x1ebe;" horiz-adv-x="1269" 
d="M162 0v1446h993l-1 -246h-699v-351h607v-241h-609v-359l712 -1v-248h-1003zM296 1567l264 259h202l257 -259h-228l-132 140l-146 -140h-217zM887 1810l152 262h225l-225 -262h-152z" />
    <glyph glyph-name="uni1EBF" unicode="&#x1ebf;" horiz-adv-x="1153" 
d="M600 -20q-154 0 -270.5 64.5t-181.5 182.5t-65 278q0 155 59.5 279.5t171.5 197t271 72.5q158 0 265 -66.5t162 -185t55 -273.5v-79h-695q0 -79 26 -137.5t75.5 -90t119.5 -31.5q75 0 131 32t79 105h263q-18 -110 -88 -188t-170 -119t-208 -41zM372 624h422
q0 62 -23.5 114t-70 82t-116.5 30q-67 0 -114.5 -32.5t-73 -84.5t-24.5 -109zM222 1155l264 259h202l257 -259h-228l-132 140l-146 -140h-217zM813 1398l152 262h225l-225 -262h-152z" />
    <glyph glyph-name="uni1EC0" unicode="&#x1ec0;" horiz-adv-x="1269" 
d="M162 0v1446h993l-1 -246h-699v-351h607v-241h-609v-359l712 -1v-248h-1003zM296 1567l264 259h202l257 -259h-228l-132 140l-146 -140h-217zM974 1810l-227 261h226l158 -261h-157z" />
    <glyph glyph-name="uni1EC1" unicode="&#x1ec1;" horiz-adv-x="1153" 
d="M600 -20q-154 0 -270.5 64.5t-181.5 182.5t-65 278q0 155 59.5 279.5t171.5 197t271 72.5q158 0 265 -66.5t162 -185t55 -273.5v-79h-695q0 -79 26 -137.5t75.5 -90t119.5 -31.5q75 0 131 32t79 105h263q-18 -110 -88 -188t-170 -119t-208 -41zM372 624h422
q0 62 -23.5 114t-70 82t-116.5 30q-67 0 -114.5 -32.5t-73 -84.5t-24.5 -109zM222 1155l264 259h202l257 -259h-228l-132 140l-146 -140h-217zM900 1398l-227 261h226l158 -261h-157z" />
    <glyph glyph-name="uni1EC2" unicode="&#x1ec2;" horiz-adv-x="1269" 
d="M162 0v1446h993l-1 -246h-699v-351h607v-241h-609v-359l712 -1v-248h-1003zM302 1567l264 259h202l257 -259h-228l-132 140l-146 -140h-217zM958 1765l-69 109q40 25 53.5 58t-7.5 67q-18 30 -57 32t-75 -22l-69 106q92 59 181.5 44.5t134.5 -85.5q55 -85 32.5 -166.5
t-124.5 -142.5z" />
    <glyph glyph-name="uni1EC3" unicode="&#x1ec3;" horiz-adv-x="1153" 
d="M600 -20q-154 0 -270.5 64.5t-181.5 182.5t-65 278q0 155 59.5 279.5t171.5 197t271 72.5q158 0 265 -66.5t162 -185t55 -273.5v-79h-695q0 -79 26 -137.5t75.5 -90t119.5 -31.5q75 0 131 32t79 105h263q-18 -110 -88 -188t-170 -119t-208 -41zM372 624h422
q0 62 -23.5 114t-70 82t-116.5 30q-67 0 -114.5 -32.5t-73 -84.5t-24.5 -109zM229 1155l264 259h202l257 -259h-228l-132 140l-146 -140h-217zM885 1353l-69 109q40 25 53.5 58t-7.5 67q-18 30 -57 32t-75 -22l-69 106q92 59 181.5 44.5t134.5 -85.5q55 -85 32.5 -166.5
t-124.5 -142.5z" />
    <glyph glyph-name="uni1EC4" unicode="&#x1ec4;" horiz-adv-x="1269" 
d="M162 0v1446h993l-1 -246h-699v-351h607v-241h-609v-359l712 -1v-248h-1003zM298 1567l264 259h202l257 -259h-228l-132 140l-146 -140h-217zM358 1918l-44 153q36 38 80 65t112 27q56 0 106 -15.5t97 -31t92 -15.5q52 0 93.5 22.5t72.5 47.5l37 -174q-32 -25 -83.5 -47.5
t-118.5 -22.5q-56 0 -102 14.5t-90 28t-95 13.5q-50 0 -83.5 -16t-73.5 -49z" />
    <glyph glyph-name="uni1EC5" unicode="&#x1ec5;" horiz-adv-x="1153" 
d="M600 -20q-154 0 -270.5 64.5t-181.5 182.5t-65 278q0 155 59.5 279.5t171.5 197t271 72.5q158 0 265 -66.5t162 -185t55 -273.5v-79h-695q0 -79 26 -137.5t75.5 -90t119.5 -31.5q75 0 131 32t79 105h263q-18 -110 -88 -188t-170 -119t-208 -41zM372 624h422
q0 62 -23.5 114t-70 82t-116.5 30q-67 0 -114.5 -32.5t-73 -84.5t-24.5 -109zM225 1155l264 259h202l257 -259h-228l-132 140l-146 -140h-217zM285 1506l-44 153q36 38 80 65t112 27q56 0 106 -15.5t97 -31t92 -15.5q52 0 93.5 22.5t72.5 47.5l37 -174q-32 -25 -83.5 -47.5
t-118.5 -22.5q-56 0 -102 14.5t-90 28t-95 13.5q-50 0 -83.5 -16t-73.5 -49z" />
    <glyph glyph-name="uni1EC6" unicode="&#x1ec6;" horiz-adv-x="1269" 
d="M162 0v1446h993l-1 -246h-699v-351h607v-241h-609v-359l712 -1v-248h-1003zM538 -398v238h279v-238h-279zM296 1567l264 259h202l257 -259h-228l-132 140l-146 -140h-217z" />
    <glyph glyph-name="uni1EC7" unicode="&#x1ec7;" horiz-adv-x="1153" 
d="M600 -20q-154 0 -270.5 64.5t-181.5 182.5t-65 278q0 155 59.5 279.5t171.5 197t271 72.5q158 0 265 -66.5t162 -185t55 -273.5v-79h-695q0 -79 26 -137.5t75.5 -90t119.5 -31.5q75 0 131 32t79 105h263q-18 -110 -88 -188t-170 -119t-208 -41zM372 624h422
q0 62 -23.5 114t-70 82t-116.5 30q-67 0 -114.5 -32.5t-73 -84.5t-24.5 -109zM451 -398v238h279v-238h-279zM222 1155l264 259h202l257 -259h-228l-132 140l-146 -140h-217z" />
    <glyph glyph-name="uni1EC8" unicode="&#x1ec8;" horiz-adv-x="615" 
d="M162 0v1446h291v-1446h-291zM391 1566l-69 108q40 25 53.5 58.5t-7.5 66.5q-18 30 -57 32t-75 -22l-68 106q91 59 180.5 44.5t134.5 -85.5q55 -85 32.5 -166.5t-124.5 -141.5z" />
    <glyph glyph-name="uni1EC9" unicode="&#x1ec9;" horiz-adv-x="529" 
d="M125 0v1034h279v-1034h-279zM352 1154l-69 108q40 25 53.5 58.5t-7.5 66.5q-18 30 -57 32t-75 -22l-68 106q91 59 180.5 44.5t134.5 -85.5q55 -85 32.5 -166.5t-124.5 -141.5z" />
    <glyph glyph-name="uni1ECA" unicode="&#x1eca;" horiz-adv-x="615" 
d="M162 0v1446h291v-1446h-291zM184 -398v238h279v-238h-279z" />
    <glyph glyph-name="uni1ECB" unicode="&#x1ecb;" horiz-adv-x="534" 
d="M128 0v1034h279v-1034h-279zM125 1182v263h284v-263h-284zM128 -398v238h279v-238h-279z" />
    <glyph glyph-name="uni1ECC" unicode="&#x1ecc;" horiz-adv-x="1521" 
d="M763 -20q-205 0 -354.5 89.5t-231 255t-81.5 395.5q0 231 82.5 398t232.5 257.5t352 90.5q201 0 350 -90t230.5 -257t81.5 -399q0 -229 -80.5 -395t-229.5 -255.5t-352 -89.5zM763 220q106 0 183.5 50.5t119.5 160t42 285.5q0 181 -42.5 293t-120 164.5t-182.5 52.5
t-183 -52.5t-121 -165t-43 -292.5q0 -177 43 -286t121 -159.5t183 -50.5zM626 -398v238h279v-238h-279z" />
    <glyph glyph-name="uni1ECD" unicode="&#x1ecd;" horiz-adv-x="1151" 
d="M576 -20q-152 0 -264.5 65t-174 184t-61.5 282t61.5 285t174 190t265.5 68t265 -66.5t173 -188.5t61 -288q0 -156 -59.5 -275.5t-171 -187.5t-269.5 -68zM577 197q77 0 124 45t68 118.5t21 160.5q0 82 -19 155t-66 118t-128 45q-77 0 -124.5 -42.5t-69.5 -115t-22 -160.5
q0 -81 20 -155.5t67 -121.5t129 -47zM434 -398v238h279v-238h-279z" />
    <glyph glyph-name="uni1ECE" unicode="&#x1ece;" horiz-adv-x="1521" 
d="M763 -20q-205 0 -354.5 89.5t-231 255t-81.5 395.5q0 231 82.5 398t232.5 257.5t352 90.5q201 0 350 -90t230.5 -257t81.5 -399q0 -229 -80.5 -395t-229.5 -255.5t-352 -89.5zM763 220q106 0 183.5 50.5t119.5 160t42 285.5q0 181 -42.5 293t-120 164.5t-182.5 52.5
t-183 -52.5t-121 -165t-43 -292.5q0 -177 43 -286t121 -159.5t183 -50.5zM845 1566l-69 108q40 25 53.5 58.5t-7.5 66.5q-18 30 -57 32t-75 -22l-68 106q91 59 180.5 44.5t134.5 -85.5q55 -85 32.5 -166.5t-124.5 -141.5z" />
    <glyph glyph-name="uni1ECF" unicode="&#x1ecf;" horiz-adv-x="1151" 
d="M576 -20q-152 0 -264.5 65t-174 184t-61.5 282t61.5 285t174 190t265.5 68t265 -66.5t173 -188.5t61 -288q0 -156 -59.5 -275.5t-171 -187.5t-269.5 -68zM577 197q77 0 124 45t68 118.5t21 160.5q0 82 -19 155t-66 118t-128 45q-77 0 -124.5 -42.5t-69.5 -115t-22 -160.5
q0 -81 20 -155.5t67 -121.5t129 -47zM659 1154l-69 108q40 25 53.5 58.5t-7.5 66.5q-18 30 -57 32t-75 -22l-68 106q91 59 180.5 44.5t134.5 -85.5q55 -85 32.5 -166.5t-124.5 -141.5z" />
    <glyph glyph-name="uni1ED0" unicode="&#x1ed0;" horiz-adv-x="1521" 
d="M763 -20q-205 0 -354.5 89.5t-231 255t-81.5 395.5q0 231 82.5 398t232.5 257.5t352 90.5q201 0 350 -90t230.5 -257t81.5 -399q0 -229 -80.5 -395t-229.5 -255.5t-352 -89.5zM763 220q106 0 183.5 50.5t119.5 160t42 285.5q0 181 -42.5 293t-120 164.5t-182.5 52.5
t-183 -52.5t-121 -165t-43 -292.5q0 -177 43 -286t121 -159.5t183 -50.5zM398 1567l264 259h202l257 -259h-228l-132 140l-146 -140h-217zM989 1810l152 262h225l-225 -262h-152z" />
    <glyph glyph-name="uni1ED1" unicode="&#x1ed1;" horiz-adv-x="1151" 
d="M576 -20q-152 0 -264.5 65t-174 184t-61.5 282t61.5 285t174 190t265.5 68t265 -66.5t173 -188.5t61 -288q0 -156 -59.5 -275.5t-171 -187.5t-269.5 -68zM577 197q77 0 124 45t68 118.5t21 160.5q0 82 -19 155t-66 118t-128 45q-77 0 -124.5 -42.5t-69.5 -115t-22 -160.5
q0 -81 20 -155.5t67 -121.5t129 -47zM212 1155l264 259h202l257 -259h-228l-132 140l-146 -140h-217zM803 1398l152 262h225l-225 -262h-152z" />
    <glyph glyph-name="uni1ED2" unicode="&#x1ed2;" horiz-adv-x="1521" 
d="M763 -20q-205 0 -354.5 89.5t-231 255t-81.5 395.5q0 231 82.5 398t232.5 257.5t352 90.5q201 0 350 -90t230.5 -257t81.5 -399q0 -229 -80.5 -395t-229.5 -255.5t-352 -89.5zM763 220q106 0 183.5 50.5t119.5 160t42 285.5q0 181 -42.5 293t-120 164.5t-182.5 52.5
t-183 -52.5t-121 -165t-43 -292.5q0 -177 43 -286t121 -159.5t183 -50.5zM398 1567l264 259h202l257 -259h-228l-132 140l-146 -140h-217zM1076 1810l-227 261h226l158 -261h-157z" />
    <glyph glyph-name="uni1ED3" unicode="&#x1ed3;" horiz-adv-x="1151" 
d="M576 -20q-152 0 -264.5 65t-174 184t-61.5 282t61.5 285t174 190t265.5 68t265 -66.5t173 -188.5t61 -288q0 -156 -59.5 -275.5t-171 -187.5t-269.5 -68zM577 197q77 0 124 45t68 118.5t21 160.5q0 82 -19 155t-66 118t-128 45q-77 0 -124.5 -42.5t-69.5 -115t-22 -160.5
q0 -81 20 -155.5t67 -121.5t129 -47zM212 1155l264 259h202l257 -259h-228l-132 140l-146 -140h-217zM890 1398l-227 261h226l158 -261h-157z" />
    <glyph glyph-name="uni1ED4" unicode="&#x1ed4;" horiz-adv-x="1521" 
d="M763 -20q-205 0 -354.5 89.5t-231 255t-81.5 395.5q0 231 82.5 398t232.5 257.5t352 90.5q201 0 350 -90t230.5 -257t81.5 -399q0 -229 -80.5 -395t-229.5 -255.5t-352 -89.5zM763 220q106 0 183.5 50.5t119.5 160t42 285.5q0 181 -42.5 293t-120 164.5t-182.5 52.5
t-183 -52.5t-121 -165t-43 -292.5q0 -177 43 -286t121 -159.5t183 -50.5zM405 1567l264 259h202l257 -259h-228l-132 140l-146 -140h-217zM1061 1765l-69 109q40 25 53.5 58t-7.5 67q-18 30 -57 32t-75 -22l-69 106q92 59 181.5 44.5t134.5 -85.5q55 -85 32.5 -166.5
t-124.5 -142.5z" />
    <glyph glyph-name="uni1ED5" unicode="&#x1ed5;" horiz-adv-x="1151" 
d="M576 -20q-152 0 -264.5 65t-174 184t-61.5 282t61.5 285t174 190t265.5 68t265 -66.5t173 -188.5t61 -288q0 -156 -59.5 -275.5t-171 -187.5t-269.5 -68zM577 197q77 0 124 45t68 118.5t21 160.5q0 82 -19 155t-66 118t-128 45q-77 0 -124.5 -42.5t-69.5 -115t-22 -160.5
q0 -81 20 -155.5t67 -121.5t129 -47zM219 1155l264 259h202l257 -259h-228l-132 140l-146 -140h-217zM875 1353l-69 109q40 25 53.5 58t-7.5 67q-18 30 -57 32t-75 -22l-69 106q92 59 181.5 44.5t134.5 -85.5q55 -85 32.5 -166.5t-124.5 -142.5z" />
    <glyph glyph-name="uni1ED6" unicode="&#x1ed6;" horiz-adv-x="1521" 
d="M763 -20q-205 0 -354.5 89.5t-231 255t-81.5 395.5q0 231 82.5 398t232.5 257.5t352 90.5q201 0 350 -90t230.5 -257t81.5 -399q0 -229 -80.5 -395t-229.5 -255.5t-352 -89.5zM763 220q106 0 183.5 50.5t119.5 160t42 285.5q0 181 -42.5 293t-120 164.5t-182.5 52.5
t-183 -52.5t-121 -165t-43 -292.5q0 -177 43 -286t121 -159.5t183 -50.5zM401 1567l264 259h202l257 -259h-228l-132 140l-146 -140h-217zM461 1918l-44 153q36 38 80 65t112 27q56 0 106 -15.5t97 -31t92 -15.5q52 0 93.5 22.5t72.5 47.5l37 -174q-32 -25 -83.5 -47.5
t-118.5 -22.5q-56 0 -102 14.5t-90 28t-95 13.5q-50 0 -83.5 -16t-73.5 -49z" />
    <glyph glyph-name="uni1ED7" unicode="&#x1ed7;" horiz-adv-x="1151" 
d="M576 -20q-152 0 -264.5 65t-174 184t-61.5 282t61.5 285t174 190t265.5 68t265 -66.5t173 -188.5t61 -288q0 -156 -59.5 -275.5t-171 -187.5t-269.5 -68zM577 197q77 0 124 45t68 118.5t21 160.5q0 82 -19 155t-66 118t-128 45q-77 0 -124.5 -42.5t-69.5 -115t-22 -160.5
q0 -81 20 -155.5t67 -121.5t129 -47zM215 1155l264 259h202l257 -259h-228l-132 140l-146 -140h-217zM275 1506l-44 153q36 38 80 65t112 27q56 0 106 -15.5t97 -31t92 -15.5q52 0 93.5 22.5t72.5 47.5l37 -174q-32 -25 -83.5 -47.5t-118.5 -22.5q-56 0 -102 14.5t-90 28
t-95 13.5q-50 0 -83.5 -16t-73.5 -49z" />
    <glyph glyph-name="uni1ED8" unicode="&#x1ed8;" horiz-adv-x="1521" 
d="M763 -20q-205 0 -354.5 89.5t-231 255t-81.5 395.5q0 231 82.5 398t232.5 257.5t352 90.5q201 0 350 -90t230.5 -257t81.5 -399q0 -229 -80.5 -395t-229.5 -255.5t-352 -89.5zM763 220q106 0 183.5 50.5t119.5 160t42 285.5q0 181 -42.5 293t-120 164.5t-182.5 52.5
t-183 -52.5t-121 -165t-43 -292.5q0 -177 43 -286t121 -159.5t183 -50.5zM626 -398v238h279v-238h-279zM398 1567l264 259h202l257 -259h-228l-132 140l-146 -140h-217z" />
    <glyph glyph-name="uni1ED9" unicode="&#x1ed9;" horiz-adv-x="1151" 
d="M576 -20q-152 0 -264.5 65t-174 184t-61.5 282t61.5 285t174 190t265.5 68t265 -66.5t173 -188.5t61 -288q0 -156 -59.5 -275.5t-171 -187.5t-269.5 -68zM577 197q77 0 124 45t68 118.5t21 160.5q0 82 -19 155t-66 118t-128 45q-77 0 -124.5 -42.5t-69.5 -115t-22 -160.5
q0 -81 20 -155.5t67 -121.5t129 -47zM434 -398v238h279v-238h-279zM212 1155l264 259h202l257 -259h-228l-132 140l-146 -140h-217z" />
    <glyph glyph-name="uni1EDA" unicode="&#x1eda;" horiz-adv-x="1670" 
d="M763 -20q-205 0 -354.5 89.5t-231 255t-81.5 395.5q0 231 82.5 398t232.5 257.5t352 90.5q148 0 268 -49t206 -142q47 0 79.5 5t54 24t34 62t17.5 119h193q-1 -121 -26.5 -200t-85 -118t-163.5 -42q41 -82 63 -183.5t22 -221.5q0 -229 -80.5 -395t-229.5 -255.5
t-352 -89.5zM763 220q106 0 183.5 50.5t119.5 160t42 285.5q0 181 -42.5 293t-120 164.5t-182.5 52.5t-183 -52.5t-121 -165t-43 -292.5q0 -177 43 -286t121 -159.5t183 -50.5zM653 1567l206 291h301l-297 -291h-210z" />
    <glyph glyph-name="uni1EDB" unicode="&#x1edb;" horiz-adv-x="1282" 
d="M462 1155l206 291h301l-297 -291h-210zM576 -20q-152 0 -264.5 65t-174 184t-61.5 282t61.5 285t174 190t265.5 68q117 0 210 -39.5t158 -112.5q50 2 81 16t48 58t24 137h192q0 -119 -24 -196.5t-80 -117t-154 -45.5q44 -105 44 -243q0 -156 -59.5 -275.5t-171 -187.5
t-269.5 -68zM577 197q77 0 124 45t68 118.5t21 160.5q0 82 -19 155t-66 118t-128 45q-77 0 -124.5 -42.5t-69.5 -115t-22 -160.5q0 -81 20 -155.5t67 -121.5t129 -47z" />
    <glyph glyph-name="uni1EDC" unicode="&#x1edc;" horiz-adv-x="1670" 
d="M763 -20q-205 0 -354.5 89.5t-231 255t-81.5 395.5q0 231 82.5 398t232.5 257.5t352 90.5q148 0 268 -49t206 -142q47 0 79.5 5t54 24t34 62t17.5 119h193q-1 -121 -26.5 -200t-85 -118t-163.5 -42q41 -82 63 -183.5t22 -221.5q0 -229 -80.5 -395t-229.5 -255.5
t-352 -89.5zM763 220q106 0 183.5 50.5t119.5 160t42 285.5q0 181 -42.5 293t-120 164.5t-182.5 52.5t-183 -52.5t-121 -165t-43 -292.5q0 -177 43 -286t121 -159.5t183 -50.5zM654 1567l-296 291h301l206 -291h-211z" />
    <glyph glyph-name="uni1EDD" unicode="&#x1edd;" horiz-adv-x="1282" 
d="M457 1155l-296 291h301l206 -291h-211zM576 -20q-152 0 -264.5 65t-174 184t-61.5 282t61.5 285t174 190t265.5 68q117 0 210 -39.5t158 -112.5q50 2 81 16t48 58t24 137h192q0 -119 -24 -196.5t-80 -117t-154 -45.5q44 -105 44 -243q0 -156 -59.5 -275.5t-171 -187.5
t-269.5 -68zM577 197q77 0 124 45t68 118.5t21 160.5q0 82 -19 155t-66 118t-128 45q-77 0 -124.5 -42.5t-69.5 -115t-22 -160.5q0 -81 20 -155.5t67 -121.5t129 -47z" />
    <glyph glyph-name="uni1EDE" unicode="&#x1ede;" horiz-adv-x="1670" 
d="M763 -20q-205 0 -354.5 89.5t-231 255t-81.5 395.5q0 231 82.5 398t232.5 257.5t352 90.5q148 0 268 -49t206 -142q47 0 79.5 5t54 24t34 62t17.5 119h193q-1 -121 -26.5 -200t-85 -118t-163.5 -42q41 -82 63 -183.5t22 -221.5q0 -229 -80.5 -395t-229.5 -255.5
t-352 -89.5zM763 220q106 0 183.5 50.5t119.5 160t42 285.5q0 181 -42.5 293t-120 164.5t-182.5 52.5t-183 -52.5t-121 -165t-43 -292.5q0 -177 43 -286t121 -159.5t183 -50.5zM845 1566l-69 108q40 25 53.5 58.5t-7.5 66.5q-18 30 -57 32t-75 -22l-68 106q91 59 180.5 44.5
t134.5 -85.5q55 -85 32.5 -166.5t-124.5 -141.5z" />
    <glyph glyph-name="uni1EDF" unicode="&#x1edf;" horiz-adv-x="1282" 
d="M647 1154l-69 108q40 25 53.5 58.5t-7.5 66.5q-18 30 -57 32t-75 -22l-68 106q91 59 180.5 44.5t134.5 -85.5q55 -85 32.5 -166.5t-124.5 -141.5zM576 -20q-152 0 -264.5 65t-174 184t-61.5 282t61.5 285t174 190t265.5 68q117 0 210 -39.5t158 -112.5q50 2 81 16t48 58
t24 137h192q0 -119 -24 -196.5t-80 -117t-154 -45.5q44 -105 44 -243q0 -156 -59.5 -275.5t-171 -187.5t-269.5 -68zM577 197q77 0 124 45t68 118.5t21 160.5q0 82 -19 155t-66 118t-128 45q-77 0 -124.5 -42.5t-69.5 -115t-22 -160.5q0 -81 20 -155.5t67 -121.5t129 -47z
" />
    <glyph glyph-name="uni1EE0" unicode="&#x1ee0;" horiz-adv-x="1670" 
d="M763 -20q-205 0 -354.5 89.5t-231 255t-81.5 395.5q0 231 82.5 398t232.5 257.5t352 90.5q148 0 268 -49t206 -142q47 0 79.5 5t54 24t34 62t17.5 119h193q-1 -121 -26.5 -200t-85 -118t-163.5 -42q41 -82 63 -183.5t22 -221.5q0 -229 -80.5 -395t-229.5 -255.5
t-352 -89.5zM763 220q106 0 183.5 50.5t119.5 160t42 285.5q0 181 -42.5 293t-120 164.5t-182.5 52.5t-183 -52.5t-121 -165t-43 -292.5q0 -177 43 -286t121 -159.5t183 -50.5zM467 1603l-45 153q36 37 80 64t112 27q56 0 106.5 -15t97 -30.5t91.5 -15.5q53 0 94 22.5
t73 46.5l36 -173q-31 -25 -83 -47.5t-119 -22.5q-56 0 -101.5 14t-89.5 27.5t-95 13.5t-84.5 -15.5t-72.5 -48.5z" />
    <glyph glyph-name="uni1EE1" unicode="&#x1ee1;" horiz-adv-x="1282" 
d="M269 1191l-45 153q36 37 80 64t112 27q56 0 106.5 -15t97 -30.5t91.5 -15.5q53 0 94 22.5t73 46.5l36 -173q-31 -25 -83 -47.5t-119 -22.5q-56 0 -101.5 14t-89.5 27.5t-95 13.5t-84.5 -15.5t-72.5 -48.5zM576 -20q-152 0 -264.5 65t-174 184t-61.5 282t61.5 285t174 190
t265.5 68q117 0 210 -39.5t158 -112.5q50 2 81 16t48 58t24 137h192q0 -119 -24 -196.5t-80 -117t-154 -45.5q44 -105 44 -243q0 -156 -59.5 -275.5t-171 -187.5t-269.5 -68zM577 197q77 0 124 45t68 118.5t21 160.5q0 82 -19 155t-66 118t-128 45q-77 0 -124.5 -42.5
t-69.5 -115t-22 -160.5q0 -81 20 -155.5t67 -121.5t129 -47z" />
    <glyph glyph-name="uni1EE2" unicode="&#x1ee2;" horiz-adv-x="1670" 
d="M763 -20q-205 0 -354.5 89.5t-231 255t-81.5 395.5q0 231 82.5 398t232.5 257.5t352 90.5q148 0 268 -49t206 -142q47 0 79.5 5t54 24t34 62t17.5 119h193q-1 -121 -26.5 -200t-85 -118t-163.5 -42q41 -82 63 -183.5t22 -221.5q0 -229 -80.5 -395t-229.5 -255.5
t-352 -89.5zM763 220q106 0 183.5 50.5t119.5 160t42 285.5q0 181 -42.5 293t-120 164.5t-182.5 52.5t-183 -52.5t-121 -165t-43 -292.5q0 -177 43 -286t121 -159.5t183 -50.5zM626 -398v238h279v-238h-279z" />
    <glyph glyph-name="uni1EE3" unicode="&#x1ee3;" horiz-adv-x="1282" 
d="M409 -398v238h279v-238h-279zM576 -20q-152 0 -264.5 65t-174 184t-61.5 282t61.5 285t174 190t265.5 68q117 0 210 -39.5t158 -112.5q50 2 81 16t48 58t24 137h192q0 -119 -24 -196.5t-80 -117t-154 -45.5q44 -105 44 -243q0 -156 -59.5 -275.5t-171 -187.5t-269.5 -68z
M577 197q77 0 124 45t68 118.5t21 160.5q0 82 -19 155t-66 118t-128 45q-77 0 -124.5 -42.5t-69.5 -115t-22 -160.5q0 -81 20 -155.5t67 -121.5t129 -47z" />
    <glyph glyph-name="uni1EE4" unicode="&#x1ee4;" horiz-adv-x="1448" 
d="M740 -20q-211 0 -338 70.5t-183.5 200.5t-56.5 310v885h297v-907q0 -162 78 -236.5t203 -74.5q83 0 147 32.5t100.5 101t36.5 177.5v907h295v-895q0 -175 -57 -303.5t-184.5 -198t-337.5 -69.5zM601 -397v238h279v-238h-279z" />
    <glyph glyph-name="uni1EE5" unicode="&#x1ee5;" horiz-adv-x="1190" 
d="M506 -20q-72 0 -141.5 22t-126.5 65t-91.5 106t-34.5 146v715h292v-678q0 -72 47 -118t138 -46q86 0 136.5 44.5t50.5 124.5v673h289v-1034h-220l-34 205q-18 -91 -67.5 -139.5t-113 -67t-124.5 -18.5zM457 -398v238h279v-238h-279z" />
    <glyph glyph-name="uni1EE6" unicode="&#x1ee6;" horiz-adv-x="1448" 
d="M740 -20q-211 0 -338 70.5t-183.5 200.5t-56.5 310v885h297v-907q0 -162 78 -236.5t203 -74.5q83 0 147 32.5t100.5 101t36.5 177.5v907h295v-895q0 -175 -57 -303.5t-184.5 -198t-337.5 -69.5zM824 1566l-69 108q40 25 53.5 58.5t-7.5 66.5q-18 30 -57 32t-75 -22
l-68 106q91 59 180.5 44.5t134.5 -85.5q55 -85 32.5 -166.5t-124.5 -141.5z" />
    <glyph glyph-name="uni1EE7" unicode="&#x1ee7;" horiz-adv-x="1190" 
d="M506 -20q-72 0 -141.5 22t-126.5 65t-91.5 106t-34.5 146v715h292v-678q0 -72 47 -118t138 -46q86 0 136.5 44.5t50.5 124.5v673h289v-1034h-220l-34 205q-18 -91 -67.5 -139.5t-113 -67t-124.5 -18.5zM674 1154l-69 108q40 25 53.5 58.5t-7.5 66.5q-18 30 -57 32
t-75 -22l-68 106q91 59 180.5 44.5t134.5 -85.5q55 -85 32.5 -166.5t-124.5 -141.5z" />
    <glyph glyph-name="uni1EE8" unicode="&#x1ee8;" horiz-adv-x="1721" 
d="M740 -20q-211 0 -338 70.5t-183.5 200.5t-56.5 310v885h297v-907q0 -162 78 -236.5t203 -74.5q83 0 147 32.5t100.5 101t36.5 177.5v907h295v-172q46 2 74 18t44 61t22 132h193q-2 -132 -32 -214t-101.5 -117t-199.5 -28v-575q0 -175 -57 -303.5t-184.5 -198
t-337.5 -69.5zM632 1567l206 291h301l-297 -291h-210z" />
    <glyph glyph-name="uni1EE9" unicode="&#x1ee9;" horiz-adv-x="1420" 
d="M496 1155l206 291h301l-297 -291h-210zM506 -20q-72 0 -141.5 22t-126.5 65t-91.5 106t-34.5 146v715h292v-678q0 -72 47 -118t138 -46q86 0 136.5 44.5t50.5 124.5v673h289v-133q51 1 82 15.5t48 59.5t23 137h193q-2 -135 -33 -217t-105.5 -116t-207.5 -26v-754h-220
l-34 205q-18 -91 -67.5 -139.5t-113 -67t-124.5 -18.5z" />
    <glyph glyph-name="uni1EEA" unicode="&#x1eea;" horiz-adv-x="1721" 
d="M740 -20q-211 0 -338 70.5t-183.5 200.5t-56.5 310v885h297v-907q0 -162 78 -236.5t203 -74.5q83 0 147 32.5t100.5 101t36.5 177.5v907h295v-172q46 2 74 18t44 61t22 132h193q-2 -132 -32 -214t-101.5 -117t-199.5 -28v-575q0 -175 -57 -303.5t-184.5 -198
t-337.5 -69.5zM633 1567l-296 291h301l206 -291h-211z" />
    <glyph glyph-name="uni1EEB" unicode="&#x1eeb;" horiz-adv-x="1420" 
d="M492 1155l-296 291h301l206 -291h-211zM506 -20q-72 0 -141.5 22t-126.5 65t-91.5 106t-34.5 146v715h292v-678q0 -72 47 -118t138 -46q86 0 136.5 44.5t50.5 124.5v673h289v-133q51 1 82 15.5t48 59.5t23 137h193q-2 -135 -33 -217t-105.5 -116t-207.5 -26v-754h-220
l-34 205q-18 -91 -67.5 -139.5t-113 -67t-124.5 -18.5z" />
    <glyph glyph-name="uni1EEC" unicode="&#x1eec;" horiz-adv-x="1721" 
d="M740 -20q-211 0 -338 70.5t-183.5 200.5t-56.5 310v885h297v-907q0 -162 78 -236.5t203 -74.5q83 0 147 32.5t100.5 101t36.5 177.5v907h295v-172q46 2 74 18t44 61t22 132h193q-2 -132 -32 -214t-101.5 -117t-199.5 -28v-575q0 -175 -57 -303.5t-184.5 -198
t-337.5 -69.5zM824 1566l-69 108q40 25 53.5 58.5t-7.5 66.5q-18 30 -57 32t-75 -22l-68 106q91 59 180.5 44.5t134.5 -85.5q55 -85 32.5 -166.5t-124.5 -141.5z" />
    <glyph glyph-name="uni1EED" unicode="&#x1eed;" horiz-adv-x="1420" 
d="M682 1154l-69 108q40 25 53.5 58.5t-7.5 66.5q-18 30 -57 32t-75 -22l-68 106q91 59 180.5 44.5t134.5 -85.5q55 -85 32.5 -166.5t-124.5 -141.5zM506 -20q-72 0 -141.5 22t-126.5 65t-91.5 106t-34.5 146v715h292v-678q0 -72 47 -118t138 -46q86 0 136.5 44.5
t50.5 124.5v673h289v-133q51 1 82 15.5t48 59.5t23 137h193q-2 -135 -33 -217t-105.5 -116t-207.5 -26v-754h-220l-34 205q-18 -91 -67.5 -139.5t-113 -67t-124.5 -18.5z" />
    <glyph glyph-name="uni1EEE" unicode="&#x1eee;" horiz-adv-x="1713" 
d="M740 -20q-211 0 -338 70.5t-183.5 200.5t-56.5 310v885h297v-907q0 -162 78 -236.5t203 -74.5q83 0 147 32.5t100.5 101t36.5 177.5v907h295v-172q46 2 74 18t44 61t22 132h193q-2 -132 -32 -214t-101.5 -117t-199.5 -28v-575q0 -175 -57 -303.5t-184.5 -198
t-337.5 -69.5zM446 1603l-45 153q36 37 80 64t112 27q56 0 106.5 -15t97 -30.5t91.5 -15.5q53 0 94 22.5t73 46.5l36 -173q-31 -25 -83 -47.5t-119 -22.5q-56 0 -101.5 14t-89.5 27.5t-95 13.5t-84.5 -15.5t-72.5 -48.5z" />
    <glyph glyph-name="uni1EEF" unicode="&#x1eef;" horiz-adv-x="1420" 
d="M304 1191l-45 153q36 37 80 64t112 27q56 0 106.5 -15t97 -30.5t91.5 -15.5q53 0 94 22.5t73 46.5l36 -173q-31 -25 -83 -47.5t-119 -22.5q-56 0 -101.5 14t-89.5 27.5t-95 13.5t-84.5 -15.5t-72.5 -48.5zM506 -20q-72 0 -141.5 22t-126.5 65t-91.5 106t-34.5 146v715
h292v-678q0 -72 47 -118t138 -46q86 0 136.5 44.5t50.5 124.5v673h289v-133q51 1 82 15.5t48 59.5t23 137h193q-2 -135 -33 -217t-105.5 -116t-207.5 -26v-754h-220l-34 205q-18 -91 -67.5 -139.5t-113 -67t-124.5 -18.5z" />
    <glyph glyph-name="uni1EF0" unicode="&#x1ef0;" horiz-adv-x="1721" 
d="M740 -20q-211 0 -338 70.5t-183.5 200.5t-56.5 310v885h297v-907q0 -162 78 -236.5t203 -74.5q83 0 147 32.5t100.5 101t36.5 177.5v907h295v-172q46 2 74 18t44 61t22 132h193q-2 -132 -32 -214t-101.5 -117t-199.5 -28v-575q0 -175 -57 -303.5t-184.5 -198
t-337.5 -69.5zM601 -397v238h279v-238h-279z" />
    <glyph glyph-name="uni1EF1" unicode="&#x1ef1;" horiz-adv-x="1420" 
d="M448 -398v238h279v-238h-279zM506 -20q-72 0 -141.5 22t-126.5 65t-91.5 106t-34.5 146v715h292v-678q0 -72 47 -118t138 -46q86 0 136.5 44.5t50.5 124.5v673h289v-133q51 1 82 15.5t48 59.5t23 137h193q-2 -135 -33 -217t-105.5 -116t-207.5 -26v-754h-220l-34 205
q-18 -91 -67.5 -139.5t-113 -67t-124.5 -18.5z" />
    <glyph glyph-name="Ygrave" unicode="&#x1ef2;" horiz-adv-x="1335" 
d="M521 0v609l-502 837h316l333 -586l329 586h319l-503 -838v-608h-292zM593 1568l-296 291h301l206 -291h-211z" />
    <glyph glyph-name="ygrave" unicode="&#x1ef3;" horiz-adv-x="1126" 
d="M287 -330q-106 0 -150 17.5l-44 17.5v186l103 -4q67 -4 108 6.5t62 27.5t30.5 35.5t13.5 29.5l19 57l-402 991h289l248 -674l250 674h286l-419 -1040q-54 -132 -114.5 -202t-130 -96t-149.5 -26zM456 1155l-296 291h301l206 -291h-211z" />
    <glyph glyph-name="uni1EF4" unicode="&#x1ef4;" horiz-adv-x="1335" 
d="M521 0v609l-502 837h316l333 -586l329 586h319l-503 -838v-608h-292zM529 -398v238h279v-238h-279z" />
    <glyph glyph-name="uni1EF5" unicode="&#x1ef5;" horiz-adv-x="1126" 
d="M287 -330q-106 0 -150 17.5l-44 17.5v186l103 -4q67 -4 108 6.5t62 27.5t30.5 35.5t13.5 29.5l19 57l-402 991h289l248 -674l250 674h286l-419 -1040q-54 -132 -114.5 -202t-130 -96t-149.5 -26zM726 -358v238h279v-238h-279z" />
    <glyph glyph-name="uni1EF6" unicode="&#x1ef6;" horiz-adv-x="1335" 
d="M521 0v609l-502 837h316l333 -586l329 586h319l-503 -838v-608h-292zM784 1567l-69 108q40 25 53.5 58.5t-7.5 66.5q-18 30 -57 32t-75 -22l-68 106q91 59 180.5 44.5t134.5 -85.5q55 -85 32.5 -166.5t-124.5 -141.5z" />
    <glyph glyph-name="uni1EF7" unicode="&#x1ef7;" horiz-adv-x="1126" 
d="M287 -330q-106 0 -150 17.5l-44 17.5v186l103 -4q67 -4 108 6.5t62 27.5t30.5 35.5t13.5 29.5l19 57l-402 991h289l248 -674l250 674h286l-419 -1040q-54 -132 -114.5 -202t-130 -96t-149.5 -26zM646 1154l-69 108q40 25 53.5 58.5t-7.5 66.5q-18 30 -57 32t-75 -22
l-68 106q91 59 180.5 44.5t134.5 -85.5q55 -85 32.5 -166.5t-124.5 -141.5z" />
    <glyph glyph-name="uni1EF8" unicode="&#x1ef8;" horiz-adv-x="1335" 
d="M521 0v609l-502 837h316l333 -586l329 586h319l-503 -838v-608h-292zM407 1604l-45 153q36 37 80 64t112 27q56 0 106.5 -15t97 -30.5t91.5 -15.5q53 0 94 22.5t73 46.5l36 -173q-31 -25 -83 -47.5t-119 -22.5q-56 0 -101.5 14t-89.5 27.5t-95 13.5t-84.5 -15.5
t-72.5 -48.5z" />
    <glyph glyph-name="uni1EF9" unicode="&#x1ef9;" horiz-adv-x="1126" 
d="M287 -330q-106 0 -150 17.5l-44 17.5v186l103 -4q67 -4 108 6.5t62 27.5t30.5 35.5t13.5 29.5l19 57l-402 991h289l248 -674l250 674h286l-419 -1040q-54 -132 -114.5 -202t-130 -96t-149.5 -26zM269 1191l-45 153q36 37 80 64t112 27q56 0 106.5 -15t97 -30.5
t91.5 -15.5q53 0 94 22.5t73 46.5l36 -173q-31 -25 -83 -47.5t-119 -22.5q-56 0 -101.5 14t-89.5 27.5t-95 13.5t-84.5 -15.5t-72.5 -48.5z" />
    <glyph glyph-name="endash" unicode="&#x2013;" horiz-adv-x="1185" 
d="M120 390v213l944 1v-213z" />
    <glyph glyph-name="emdash" unicode="&#x2014;" horiz-adv-x="2297" 
d="M360 390v213l1577 1v-213z" />
    <glyph glyph-name="quoteleft" unicode="&#x2018;" horiz-adv-x="526" 
d="M77 944v248l201 315h108l-116 -273l102 -9v-281h-295z" />
    <glyph glyph-name="quoteright" unicode="&#x2019;" horiz-adv-x="523" 
d="M100 884l116 272l-102 10v280h295v-247l-201 -315h-108z" />
    <glyph glyph-name="quotesinglbase" unicode="&#x201a;" horiz-adv-x="554" 
d="M94 -277l115 272l-101 9v283h295v-249l-201 -315h-108z" />
    <glyph glyph-name="quotedblleft" unicode="&#x201c;" horiz-adv-x="959" 
d="M77 884v248l201 314h108l-116 -271l102 -10v-281h-295zM510 884v248l201 314h108l-116 -271l102 -10v-281h-295z" />
    <glyph glyph-name="quotedblright" unicode="&#x201d;" horiz-adv-x="956" 
d="M531 884l118 272l-103 10v280h296v-247l-201 -315h-110zM100 884l116 272l-102 10v280h295v-247l-201 -315h-108z" />
    <glyph glyph-name="quotedblbase" unicode="&#x201e;" horiz-adv-x="997" 
d="M537 -277l115 272l-101 9v283h295v-249l-201 -315h-108zM94 -277l115 272l-101 9v283h295v-249l-201 -315h-108z" />
    <glyph glyph-name="dagger" unicode="&#x2020;" horiz-adv-x="1041" 
d="M374 -322l54 1096l-366 -42v254l356 -37l-46 497h284l-47 -497l356 37v-254l-366 42l55 -1096h-280z" />
    <glyph glyph-name="daggerdbl" unicode="&#x2021;" horiz-adv-x="1041" 
d="M372 -322l47 471l-357 -39v255l363 -41v422l-363 -41v253l356 -38l-46 526h282l-45 -526l356 38v-253l-364 41v-422l364 41v-255l-358 39l49 -471h-284z" />
    <glyph glyph-name="bullet" unicode="&#x2022;" horiz-adv-x="706" 
d="M342 484q-69 0 -126 34t-90.5 91.5t-33.5 126.5t33.5 125.5t90.5 90.5t126 34t126 -34t91 -90.5t34 -125.5t-34 -126.5t-91 -91.5t-126 -34z" />
    <glyph glyph-name="ellipsis" unicode="&#x2026;" horiz-adv-x="1789" 
d="M1349 0v318h320v-318h-320zM99 0v318h320v-318h-320zM724 0v318h320v-318h-320z" />
    <glyph glyph-name="perthousand" unicode="&#x2030;" horiz-adv-x="2705" 
d="M381 -8l977 1470h170l-972 -1470h-175zM459 648q-104 0 -187 54.5t-131 146.5t-48 205q0 115 48.5 209t131.5 149.5t186 55.5t185 -55.5t130 -149.5t48 -209q0 -113 -47 -205t-129.5 -146.5t-186.5 -54.5zM457 796q79 0 115 65.5t36 192.5q0 131 -37 199t-114 68
q-76 0 -113 -68.5t-37 -198.5q0 -126 36.5 -192t113.5 -66zM1408 -20q-105 0 -188 54t-131 146.5t-48 207.5t48.5 209t132 149.5t186.5 55.5t185.5 -55.5t130.5 -149.5t48 -209t-47 -207.5t-129.5 -146.5t-187.5 -54zM1406 130q78 0 114 65.5t36 190.5q0 131 -37 199
t-113 68t-112.5 -68.5t-36.5 -198.5q0 -124 36 -190t113 -66zM2236 -20q-106 0 -188.5 54t-130.5 146.5t-48 207.5t48.5 209t131.5 149.5t187 55.5q102 0 184.5 -55.5t130.5 -149.5t48 -209t-47.5 -207.5t-129.5 -146.5t-186 -54zM2234 130q78 0 113.5 65.5t35.5 190.5
q0 131 -36.5 199t-112.5 68t-113 -68.5t-37 -198.5q0 -124 36.5 -190t113.5 -66z" />
    <glyph glyph-name="guilsinglleft" unicode="&#x2039;" horiz-adv-x="618" 
d="M338 129l-237 373l236 389h156l-163 -389l162 -373h-154z" />
    <glyph glyph-name="guilsinglright" unicode="&#x203a;" horiz-adv-x="617" 
d="M126 129l161 373l-163 389h156l236 -389l-237 -373h-153z" />
    <glyph glyph-name="fraction" unicode="&#x2044;" horiz-adv-x="474" 
d="M-161 -8l-173 3l975 1467h170z" />
    <glyph glyph-name="uni2070" unicode="&#x2070;" horiz-adv-x="804" 
d="M403 733q-168 0 -259.5 120.5t-91.5 342.5q0 223 92.5 347t258.5 124t258 -124t92 -346t-91 -343t-259 -121zM403 884q83 0 119 73t36 238q0 170 -37 246.5t-119 76.5q-81 0 -118.5 -77t-37.5 -246q0 -164 37 -237.5t120 -73.5z" />
    <glyph glyph-name="uni2074" unicode="&#x2074;" horiz-adv-x="820" 
d="M458 745l1 201h-417v152l413 557h183v-553h140v-156h-140v-201h-180zM215 1102h244v326z" />
    <glyph glyph-name="uni2075" unicode="&#x2075;" horiz-adv-x="843" 
d="M437 732q-135 0 -239 60t-146 155l146 84q38 -65 89 -107.5t131 -42.5q81 0 129.5 43.5t48.5 110.5q0 65 -47.5 108.5t-124.5 43.5q-42 0 -77.5 -11.5t-81.5 -48.5q-9 -3 -12 -3t-13 5l-134 61l41 464h586l-7 -154h-431l-17 -211q49 24 93.5 37t100.5 13q90 0 162.5 -35
t114.5 -101t42 -161q0 -144 -96 -227t-258 -83z" />
    <glyph glyph-name="uni2076" unicode="&#x2076;" horiz-adv-x="824" 
d="M427 736q-177 0 -276 121.5t-99 324.5q0 229 103 357t279 128q86 0 159 -31.5t118.5 -91t49.5 -141.5h-171q-17 58 -55.5 87t-96.5 29q-97 0 -144 -79t-36 -204q35 42 89.5 64t115.5 22q141 0 225.5 -77t84.5 -203q0 -89 -44 -158.5t-122 -108.5t-180 -39zM420 877
q65 0 110 43.5t45 113.5q0 77 -45.5 112t-109.5 35q-39 0 -74 -17.5t-57.5 -43.5t-22.5 -52q-1 -91 42.5 -141t111.5 -50z" />
    <glyph glyph-name="uni2077" unicode="&#x2077;" horiz-adv-x="745" 
d="M207 747q6 74 40 197t102.5 270t177.5 290h-485v153h681v-153q-54 -66 -108.5 -163t-100.5 -204.5t-75 -209.5t-31 -180h-201z" />
    <glyph glyph-name="uni2078" unicode="&#x2078;" horiz-adv-x="859" 
d="M430 735q-165 0 -266.5 71t-101.5 194q0 52 25 98t64 79t80 43q-56 27 -93 75t-37 116q0 122 93.5 189t235.5 67q143 0 235.5 -67t92.5 -189q0 -68 -36.5 -116t-93.5 -75q43 -10 81.5 -43t63 -79t24.5 -98q0 -123 -101 -194t-266 -71zM430 875q79 0 124 35.5t45 94.5
q0 60 -45.5 97t-123.5 37q-79 0 -124 -37t-45 -97q0 -59 44.5 -94.5t124.5 -35.5zM430 1291q63 0 102.5 33.5t39.5 90.5q0 58 -40 92t-102 34t-102 -34t-40 -92q0 -57 39.5 -90.5t102.5 -33.5z" />
    <glyph glyph-name="uni2079" unicode="&#x2079;" horiz-adv-x="823" 
d="M387 735q-87 0 -161 33t-120 92.5t-51 138.5h177q12 -53 50.5 -84.5t95.5 -31.5q98 0 156 68t49 222q-30 -47 -83.5 -74.5t-128.5 -27.5q-139 0 -227.5 78.5t-88.5 209.5q0 91 43 160.5t120.5 108.5t178.5 39q176 0 275 -122t99 -325q0 -247 -103.5 -366t-280.5 -119z
M403 1220q38 0 73.5 17.5t58.5 44t23 52.5q1 92 -42.5 142t-112.5 50q-64 0 -106 -43.5t-42 -114.5q0 -73 42.5 -110.5t105.5 -37.5z" />
    <glyph glyph-name="colonmonetary" unicode="&#x20a1;" horiz-adv-x="1436" 
d="M751 -20q-202 0 -349 94t-226.5 264t-79.5 397q0 228 79 391.5t226 251.5t350 88q163 0 290.5 -65.5t206 -178.5t92.5 -255h-306q-14 75 -51 133.5t-97 92t-144 33.5q-101 0 -174 -49t-112 -158t-39 -288q0 -270 86.5 -390.5t238.5 -120.5q84 0 144 38.5t97 102t51 139.5
h306q-13 -103 -50 -196.5t-105 -166.5t-175 -115t-259 -42zM418 -122l320 1682h129l-320 -1682h-129zM649 -122l320 1682h129l-320 -1682h-129z" />
    <glyph glyph-name="franc" unicode="&#x20a3;" horiz-adv-x="1249" 
d="M138 0v1446h1032l-1 -243h-699v-374h518v-237h-518v-592h-332zM-38 238v159l806 1v-160h-806z" />
    <glyph glyph-name="lira" unicode="&#x20a4;" horiz-adv-x="1296" 
d="M41 0v242h68q65 0 110 40.5t55 127.5q4 13 4.5 29t-0.5 36q0 14 -17 14h-208v158h204l-20 134h-184v160h160l-7 79q-17 156 43 254.5t169 145t239 46.5q92 0 185 -32t168.5 -95.5t114.5 -159.5l-255 -78q-24 56 -62 94.5t-107 38.5q-47 0 -84 -20t-58 -58t-21 -91
q0 -18 3.5 -44.5t7.5 -58.5q3 -21 23 -21h269v-159l-264 -1l18 -134h246v-158h-251q-6 -44 -21.5 -88.5t-41 -85t-61.5 -71.5h275q91 0 144.5 36.5t81.5 123.5l247 -54q-45 -170 -163.5 -260t-287.5 -90h-722z" />
    <glyph glyph-name="uni20A6" unicode="&#x20a6;" horiz-adv-x="1661" 
d="M226 0v1446h289l660 -957v957h292v-1446h-263l-687 995v-995h-291zM17 462v144l1627 1v-144zM17 881v144l1627 1v-144z" />
    <glyph glyph-name="uni20A9" unicode="&#x20a9;" horiz-adv-x="2237" 
d="M599 0l-427 1446h286l270 -955l268 955h212l271 -955l269 955h285l-427 -1446h-233l-272 945l-273 -945h-229zM23 730v158l2177 1v-158zM23 1042v158l2177 1v-158z" />
    <glyph glyph-name="dong" unicode="&#x20ab;" horiz-adv-x="1072" 
d="M414 249q-97 0 -173 48.5t-120.5 144.5t-44.5 240q0 136 48 236.5t128.5 156.5t178.5 56q66 0 115.5 -21.5t94.5 -64.5q14 -10 21 -8t7 20v388h245v-1180h-241v106q-28 -31 -62.5 -59t-82.5 -45.5t-114 -17.5zM131 0v141h786v-141h-786zM510 405q45 0 80.5 19.5
t55.5 51.5t20 68v348q-34 38 -69.5 58t-84.5 20q-80 0 -131.5 -66.5t-51.5 -218.5q0 -101 23 -163t64 -89.5t94 -27.5zM444 1206v129h591v-129h-591z" />
    <glyph glyph-name="Euro" unicode="&#x20ac;" horiz-adv-x="1303" 
d="M778 -20q-138 0 -252 54t-196.5 154.5t-127 239t-44.5 307.5q0 225 78 389t217.5 253t323.5 89q138 0 253.5 -53.5t192.5 -146.5l-200 -153q-44 47 -95.5 84t-124.5 37q-95 0 -164 -52t-106 -163t-37 -289q0 -176 40.5 -287t113 -164t167.5 -53q73 0 141 40t107 88
l157 -168q-76 -88 -191.5 -147t-252.5 -59zM1 482v159l849 1v-160h-849zM1 808v157l849 1v-158h-849z" />
    <glyph glyph-name="uni20B9" unicode="&#x20b9;" horiz-adv-x="1286" 
d="M706 0l-225 634h-440v211h423q137 0 200.5 54.5t63.5 171.5q0 114 -64.5 167t-185.5 53h-437v155h484q259 0 403 -100t144 -284q0 -98 -37 -172.5t-98 -124.5t-133 -77q-16 -5 -7 -29l269 -659h-360zM43 1002v144l1192 1v-144zM43 1302v144l1192 1v-144z" />
    <glyph glyph-name="uni20BA" unicode="&#x20ba;" horiz-adv-x="1311" 
d="M269 0v1446h334v-1202h70q111 4 200.5 83.5t145.5 232.5l259 -55q-37 -104 -96 -195.5t-145 -161.5t-205.5 -109t-277.5 -39h-285zM113 378l-55 154l813 296l55 -154zM86 693l-56 154l814 296l57 -152z" />
    <glyph glyph-name="uni2113" unicode="&#x2113;" horiz-adv-x="1140" 
d="M608 -17q-175 0 -271.5 81.5t-128.5 246.5l-97 -65l-68 160l163 122v443q0 167 54.5 277t150.5 164t220 54q122 0 195 -45.5t105.5 -122t32.5 -169.5q0 -109 -38.5 -202t-104 -174t-148 -155.5t-169.5 -146.5q0 -138 36 -195.5t134 -57.5q73 0 139.5 39t139.5 128l98 -97
q-18 -42 -51.5 -91t-85.5 -93.5t-127.5 -72.5t-178.5 -28zM504 687q52 48 99.5 101.5t85 111.5t59.5 120t22 127q0 66 -28 105t-88 39q-45 0 -78.5 -28t-52.5 -97t-19 -192v-287z" />
    <glyph glyph-name="uni2116" unicode="&#x2116;" horiz-adv-x="2370" 
d="M162 0v1446h289l660 -957v957h292v-1446h-263l-687 995v-995h-291zM1967 795q-99 0 -173 42.5t-114 117.5t-40 172q0 101 42 177t116 118.5t169 42.5q99 0 172.5 -43t114.5 -119.5t41 -175.5q0 -97 -41 -172t-114.5 -117.5t-172.5 -42.5zM1967 923q68 0 101 53t33 156
t-33 155.5t-101 52.5q-67 0 -100 -52.5t-33 -155.5t33 -156t100 -53z" />
    <glyph glyph-name="uni2117" unicode="&#x2117;" horiz-adv-x="1661" 
d="M823 -20q-154 0 -288.5 57.5t-236.5 159.5t-159.5 237t-57.5 290q0 153 57.5 287.5t159.5 236.5t236.5 160t288.5 58t288.5 -58t237 -160t160.5 -236.5t58 -287.5q0 -155 -58 -290t-160.5 -237t-237 -159.5t-288.5 -57.5zM823 143q122 0 225.5 40.5t180 116.5
t118.5 183.5t42 240.5q0 132 -42 238.5t-118.5 183.5t-180 118.5t-225.5 41.5q-124 0 -227.5 -41.5t-179 -118.5t-117 -183.5t-41.5 -238.5q0 -133 41.5 -240.5t117 -183.5t179 -116.5t227.5 -40.5zM540 336v772h344q84 0 152.5 -26t109 -80t40.5 -139q0 -124 -78.5 -188.5
t-204.5 -64.5h-176v-274h-187zM727 744h153q51 0 83.5 29.5t32.5 85.5q0 62 -36 87t-87 25h-146v-227z" />
    <glyph glyph-name="uni2120" unicode="&#x2120;" horiz-adv-x="2022" 
d="M977 0v904h266l206 -644l208 644h265v-904h-184v691l-218 -691h-143l-216 688v-688h-184zM438 -13q-90 0 -173 30t-139.5 90.5t-65.5 150.5h188q13 -61 66 -94t134 -33q65 0 117.5 28.5t52.5 86.5q0 46 -33.5 69.5t-92.5 36.5l-169 38q-109 22 -172.5 82.5t-63.5 170.5
q0 84 46 145t126.5 94t180.5 33q113 0 191 -36.5t119.5 -98.5t41.5 -139h-183q-4 47 -27.5 75.5t-61 41.5t-85.5 13q-81 0 -119 -33.5t-38 -76.5q0 -41 28.5 -66.5t91.5 -38.5l157 -34q131 -26 188.5 -94t57.5 -164q0 -82 -46 -144t-128 -97.5t-189 -35.5z" />
    <glyph glyph-name="trademark" unicode="&#x2122;" horiz-adv-x="1906" 
d="M861 0v904h266l206 -644l208 644h265v-904h-184v691l-218 -691h-143l-216 688v-688h-184zM294 0v741h-273v163h724v-163h-268v-741h-183z" />
    <glyph glyph-name="uni2126" unicode="&#x2126;" horiz-adv-x="1535" 
d="M123 0v252h276q-30 25 -70.5 63t-82 89t-76.5 115t-56.5 142t-21.5 169q0 127 45 247t132.5 216.5t214 153.5t288.5 57q168 0 293.5 -60t209.5 -158t126 -217t42 -237q0 -89 -18.5 -165t-57 -144.5t-98 -135t-141.5 -135.5h284v-252h-587v221q45 32 94.5 82.5t93 120.5
t70.5 162t27 209q0 111 -23.5 198t-68 148t-106.5 92.5t-140 31.5q-76 0 -139 -30.5t-110 -91t-72.5 -149.5t-25.5 -206q0 -129 35 -233.5t99 -188t152 -145.5v-221h-588z" />
    <glyph glyph-name="uni2153" unicode="&#x2153;" horiz-adv-x="1847" 
d="M204 536v679h-162v106q116 0 167.5 32.5t58.5 92.5h126v-910h-190zM399 -8l-173 3l975 1467h170zM1406 -14q-165 1 -255.5 80t-91.5 216h179q13 -77 60 -111t110 -34q84 0 131.5 35t47.5 91q0 55 -46.5 90t-126.5 37l-87 3v149l79 4q48 2 84 18t56 42.5t20 61.5
q0 49 -44.5 78t-113.5 29q-43 0 -79.5 -14.5t-59.5 -47t-26 -87.5h-179q0 97 45.5 162.5t124.5 98.5t177 33q102 0 181.5 -26.5t125.5 -80t46 -137.5q0 -67 -38.5 -118t-124.5 -81q74 -21 129 -74t55 -146q0 -90 -51 -150.5t-137 -90.5t-191 -30z" />
    <glyph glyph-name="uni2154" unicode="&#x2154;" horiz-adv-x="2168" 
d="M59 537v92v46q0 81 34 137t88.5 95.5t115 70t114.5 59t88.5 63t34.5 83.5q0 54 -38 88t-102 34q-66 0 -114.5 -39t-58.5 -120h-179q0 88 40 158.5t119 112.5t198 42q153 0 241.5 -75.5t88.5 -199.5q0 -80 -33.5 -134.5t-86 -91.5t-112 -64.5t-112 -53.5t-86 -58.5
t-33.5 -79.5v-7h462v-158h-669zM720 -8l-173 3l975 1467h170zM1727 -14q-165 1 -255.5 80t-91.5 216h179q13 -77 60 -111t110 -34q84 0 131.5 35t47.5 91q0 55 -46.5 90t-126.5 37l-87 3v149l79 4q48 2 84 18t56 42.5t20 61.5q0 49 -44.5 78t-113.5 29q-43 0 -79.5 -14.5
t-59.5 -47t-26 -87.5h-179q0 97 45.5 162.5t124.5 98.5t177 33q102 0 181.5 -26.5t125.5 -80t46 -137.5q0 -67 -38.5 -118t-124.5 -81q74 -21 129 -74t55 -146q0 -90 -51 -150.5t-137 -90.5t-191 -30z" />
    <glyph glyph-name="oneeighth" unicode="&#x215b;" horiz-adv-x="1856" 
d="M204 536v679h-162v106q116 0 167.5 32.5t58.5 92.5h126v-910h-190zM399 -8l-173 3l975 1467h170zM1427 -10q-165 0 -266.5 71t-101.5 194q0 52 25 98t64 79t80 43q-56 27 -93 75t-37 116q0 122 93.5 189t235.5 67q143 0 235.5 -67t92.5 -189q0 -68 -36.5 -116t-93.5 -75
q43 -10 81.5 -43t63 -79t24.5 -98q0 -123 -101 -194t-266 -71zM1427 130q79 0 124 35.5t45 94.5q0 60 -45.5 97t-123.5 37q-79 0 -124 -37t-45 -97q0 -59 44.5 -94.5t124.5 -35.5zM1427 546q63 0 102.5 33.5t39.5 90.5q0 58 -40 92t-102 34t-102 -34t-40 -92
q0 -57 39.5 -90.5t102.5 -33.5z" />
    <glyph glyph-name="threeeighths" unicode="&#x215c;" horiz-adv-x="2113" 
d="M409 526q-165 1 -255.5 80t-91.5 216h179q13 -77 60 -111t110 -34q84 0 131.5 35t47.5 91q0 55 -46.5 90t-126.5 37l-87 3v149l79 4q48 2 84 18t56 42.5t20 61.5q0 49 -44.5 78t-113.5 29q-43 0 -79.5 -14.5t-59.5 -47t-26 -87.5h-179q0 97 45.5 162.5t124.5 98.5t177 33
q102 0 181.5 -26.5t125.5 -80t46 -137.5q0 -67 -38.5 -118t-124.5 -81q74 -21 129 -74t55 -146q0 -90 -51 -150.5t-137 -90.5t-191 -30zM655 -8l-173 3l975 1467h170zM1684 -10q-165 0 -266.5 71t-101.5 194q0 52 25 98t64 79t80 43q-56 27 -93 75t-37 116q0 122 93.5 189
t235.5 67q143 0 235.5 -67t92.5 -189q0 -68 -36.5 -116t-93.5 -75q43 -10 81.5 -43t63 -79t24.5 -98q0 -123 -101 -194t-266 -71zM1684 130q79 0 124 35.5t45 94.5q0 60 -45.5 97t-123.5 37q-79 0 -124 -37t-45 -97q0 -59 44.5 -94.5t124.5 -35.5zM1684 546q63 0 102.5 33.5
t39.5 90.5q0 58 -40 92t-102 34t-102 -34t-40 -92q0 -57 39.5 -90.5t102.5 -33.5z" />
    <glyph glyph-name="fiveeighths" unicode="&#x215d;" horiz-adv-x="2106" 
d="M437 524q-135 0 -239 60t-146 155l146 84q38 -65 89 -107.5t131 -42.5q81 0 129.5 43.5t48.5 110.5q0 65 -47.5 108.5t-124.5 43.5q-42 0 -77.5 -11.5t-81.5 -48.5q-9 -3 -12 -3t-13 5l-134 61l41 464h586l-7 -154h-431l-17 -211q49 24 93.5 37t100.5 13q90 0 162.5 -35
t114.5 -101t42 -161q0 -144 -96 -227t-258 -83zM648 -8l-173 3l975 1467h170zM1677 -10q-165 0 -266.5 71t-101.5 194q0 52 25 98t64 79t80 43q-56 27 -93 75t-37 116q0 122 93.5 189t235.5 67q143 0 235.5 -67t92.5 -189q0 -68 -36.5 -116t-93.5 -75q43 -10 81.5 -43
t63 -79t24.5 -98q0 -123 -101 -194t-266 -71zM1677 130q79 0 124 35.5t45 94.5q0 60 -45.5 97t-123.5 37q-79 0 -124 -37t-45 -97q0 -59 44.5 -94.5t124.5 -35.5zM1677 546q63 0 102.5 33.5t39.5 90.5q0 58 -40 92t-102 34t-102 -34t-40 -92q0 -57 39.5 -90.5t102.5 -33.5z
" />
    <glyph glyph-name="seveneighths" unicode="&#x215e;" horiz-adv-x="1937" 
d="M207 537q6 74 40 197t102.5 270t177.5 290h-485v153h681v-153q-54 -66 -108.5 -163t-100.5 -204.5t-75 -209.5t-31 -180h-201zM480 -8l-173 3l975 1467h170zM1508 -10q-165 0 -266.5 71t-101.5 194q0 52 25 98t64 79t80 43q-56 27 -93 75t-37 116q0 122 93.5 189
t235.5 67q143 0 235.5 -67t92.5 -189q0 -68 -36.5 -116t-93.5 -75q43 -10 81.5 -43t63 -79t24.5 -98q0 -123 -101 -194t-266 -71zM1508 130q79 0 124 35.5t45 94.5q0 60 -45.5 97t-123.5 37q-79 0 -124 -37t-45 -97q0 -59 44.5 -94.5t124.5 -35.5zM1508 546q63 0 102.5 33.5
t39.5 90.5q0 58 -40 92t-102 34t-102 -34t-40 -92q0 -57 39.5 -90.5t102.5 -33.5z" />
    <glyph glyph-name="partialdiff" unicode="&#x2202;" horiz-adv-x="1211" 
d="M574 -20q-154 0 -264 63t-168.5 170t-58.5 242q0 132 56 238t161 166.5t251 60.5q69 0 116.5 -13t83.5 -34t72 -46q21 -15 26.5 -8t5.5 20q0 76 -21.5 149.5t-67 132.5t-117 93.5t-171.5 34.5q-97 0 -160 -29t-110 -60l-81 172q30 28 88.5 59t139.5 53t177 22
q174 0 307 -81.5t207.5 -248t74.5 -420.5q0 -224 -61 -389.5t-182.5 -256t-303.5 -90.5zM564 189h2q73 0 128.5 44t90.5 122t46 182q3 30 1 43t-13 27q-21 30 -55 57t-77.5 43t-91.5 16q-70 0 -122.5 -37t-82 -100.5t-29.5 -143.5q0 -79 27 -135t73 -87t103 -31z" />
    <glyph glyph-name="emptyset" unicode="&#x2205;" horiz-adv-x="1195" 
d="M180 243l-98 102l916 845l94 -100zM592 275q-124 0 -226.5 61.5t-163 164t-60.5 227.5q0 124 61 226t163 163.5t226 61.5q125 0 227.5 -61.5t164 -163.5t61.5 -226q0 -125 -61.5 -227.5t-164 -164t-227.5 -61.5zM592 410q88 0 160 43t115 115t43 160q0 86 -43 158
t-115 115t-160 43q-87 0 -159 -43t-114.5 -115t-42.5 -158q0 -88 42.5 -160t114.5 -115t159 -43z" />
    <glyph glyph-name="uni2206" unicode="&#x2206;" horiz-adv-x="1542" 
d="M33 0l751 1446l724 -1446h-1475zM458 245h637l-311 664z" />
    <glyph glyph-name="product" unicode="&#x220f;" horiz-adv-x="1396" 
d="M216 0v1205h-179v241h1308v-241h-181v-1205h-301v1205h-345v-1205h-302z" />
    <glyph glyph-name="summation" unicode="&#x2211;" horiz-adv-x="1145" 
d="M57 0v177l416 540l-393 531v198h961v-235h-563l358 -462l-396 -502h637v-247h-1020z" />
    <glyph glyph-name="minus" unicode="&#x2212;" horiz-adv-x="1177" 
d="M116 621v213h945v-213h-945z" />
    <glyph glyph-name="uni2215" unicode="&#x2215;" horiz-adv-x="1220" 
d="M260 -8l-172 3l875 1467h169z" />
    <glyph glyph-name="uni2219" unicode="&#x2219;" horiz-adv-x="708" 
d="M344 579q-64 0 -109 45.5t-45 108.5q0 64 45 109t109 45t109 -45t45 -109q0 -63 -45 -108.5t-109 -45.5z" />
    <glyph glyph-name="radical" unicode="&#x221a;" horiz-adv-x="1370" 
d="M551 -322l-303 827l-158 -59l-60 165l380 137l284 -797l428 1700h245l-519 -1973h-297z" />
    <glyph glyph-name="infinity" unicode="&#x221e;" horiz-adv-x="1585" 
d="M429 182q-90 0 -166.5 43.5t-123 123t-46.5 187.5q0 107 46.5 187t127.5 124.5t186 44.5q78 0 132.5 -24t99 -64.5t90.5 -91.5q16 -17 25 -16.5t23 16.5q36 40 80 81.5t103.5 70t140.5 28.5q95 0 170 -42t118 -119t43 -182v-4q0 -115 -48 -196t-127 -124t-173 -43
q-77 0 -133 26t-101 70.5t-91 97.5q-11 14 -17.5 15.5t-19.5 -14.5q-14 -15 -41.5 -46.5t-69 -66t-98.5 -58.5t-130 -24zM446 364h5q41 0 80 21t70 52t52 59q17 23 16 35t-19 40q-45 67 -94 105.5t-112 38.5q-72 0 -117 -48.5t-45 -124.5q0 -79 47.5 -128.5t116.5 -49.5z
M1140 364q48 0 81.5 26.5t50.5 67t17 82.5q0 69 -41.5 122t-113.5 53h-2q-65 0 -115.5 -45t-91.5 -93q-18 -21 -14.5 -39t14.5 -32q44 -62 85.5 -92.5t74.5 -40t55 -9.5z" />
    <glyph glyph-name="integral" unicode="&#x222b;" horiz-adv-x="938" 
d="M246 -343q-52 0 -92 6t-71.5 17.5t-58.5 27.5l61 241q32 -16 65 -27.5t78 -11.5q58 0 92 45.5t34 164.5q0 130 -8 271t-19.5 282t-20 270t-8.5 234q0 164 41.5 274t125 165t210.5 55q53 0 94.5 -6.5t73.5 -18t57 -27.5l-59 -241q-32 16 -66.5 28t-80.5 12
q-59 0 -93.5 -45.5t-34.5 -160.5q0 -133 8.5 -274t19 -279.5t18.5 -265t8 -231.5q0 -169 -42 -281.5t-125 -168t-207 -55.5z" />
    <glyph glyph-name="approxequal" unicode="&#x2248;" horiz-adv-x="1217" 
d="M199 716l-83 146q74 76 146.5 127.5t169.5 51.5q62 0 109.5 -18.5t89 -42.5t83 -42.5t88.5 -18.5q72 0 125 42t88 99l85 -145q-50 -87 -127.5 -133.5t-165.5 -46.5q-59 0 -106.5 18.5t-90.5 43t-86 42.5t-94 18q-76 0 -129.5 -44t-101.5 -97zM201 295l-85 147
q74 76 146.5 127.5t169.5 51.5q62 0 109.5 -19t89 -42.5t83 -42.5t88.5 -19q72 0 125 42.5t88 98.5l85 -145q-50 -86 -127.5 -133t-165.5 -47q-60 0 -108 18.5t-90.5 43t-85 43t-93.5 18.5q-76 0 -130 -44.5t-99 -97.5z" />
    <glyph glyph-name="notequal" unicode="&#x2260;" horiz-adv-x="1177" 
d="M208 68l544 1230h141l-537 -1230h-148zM116 811v213l945 1v-213zM116 354v213h945v-213h-945z" />
    <glyph glyph-name="lessequal" unicode="&#x2264;" horiz-adv-x="1177" 
d="M1043 402l-920 359v243l921 359v-252l-601 -230l600 -227v-252zM116 62v212l945 -1v-211h-945z" />
    <glyph glyph-name="greaterequal" unicode="&#x2265;" horiz-adv-x="1177" 
d="M132 402v252l602 227l-603 230v252l923 -359v-243zM116 62v211l945 1v-212h-945z" />
    <glyph glyph-name="lozenge" unicode="&#x25ca;" horiz-adv-x="1112" 
d="M471 0l-353 723l362 723h195l353 -719l-363 -727h-194zM575 207l231 516l-231 511l-231 -505z" />
    <glyph glyph-name="i.loclTRK" horiz-adv-x="529" 
d="M125 0v1034h279v-1034h-279zM129 1208v238h279v-238h-279z" />
    <glyph glyph-name="g.ss01" horiz-adv-x="1212" 
d="M575 -337q-109 0 -192 32.5t-140 83t-88 106.5t-36 102h270q10 -44 60.5 -77t122.5 -34q89 0 145.5 33.5t84 86.5t28.5 112v76q-44 -79 -126.5 -108.5t-186.5 -29.5q-85 0 -162.5 36.5t-138 102.5t-96.5 156t-37 198q-1 93 25.5 184t81 165.5t135.5 119t188 44.5
q70 0 130 -24.5t103 -60.5t63 -71l1 136h287l1 -860q1 -157 -66.5 -271t-185.5 -176t-271 -62zM605 255q78 0 123 34t64.5 88.5t19.5 118.5l-2 108q0 58 -27.5 114t-75 92.5t-106.5 36.5q-73 0 -123 -42t-75 -112t-25 -154q0 -78 28.5 -142.5t79.5 -103t119 -38.5z" />
    <glyph glyph-name="l.ss01" horiz-adv-x="616" 
d="M162 0v1486h292v-1486h-292z" />
    <glyph glyph-name="zero.osf" horiz-adv-x="1289" 
d="M646 -22q-263 0 -410.5 191t-147.5 550q0 240 68 407t193 253.5t297 86.5q258 0 407 -192.5t149 -553.5q0 -359 -147 -550.5t-409 -191.5zM646 217q129 0 189 115.5t60 386.5q0 277 -61 397t-189 120t-190.5 -121t-62.5 -396q0 -270 62 -386t192 -116z" />
    <glyph glyph-name="one.osf" horiz-adv-x="856" 
d="M344 0v1083h-258v165q124 0 200.5 23.5t114.5 68t45 106.5h194v-1446h-296z" />
    <glyph glyph-name="two.osf" horiz-adv-x="1270" 
d="M113 0v144v74q0 110 41 190.5t108.5 140t148 104.5t161.5 85t148.5 80.5t108.5 90.5t41 118q0 87 -60.5 142t-165.5 55q-109 0 -185 -63t-94 -190h-279q2 138 64.5 250.5t187.5 178.5t314 66q162 0 279.5 -55t181.5 -153t64 -229q0 -109 -40 -188t-106 -135t-145 -98
t-157.5 -78t-144.5 -73.5t-106 -84.5t-40 -113v-13h737v-246h-1062z" />
    <glyph glyph-name="three.osf" horiz-adv-x="1330" 
d="M640 -19q-174 1 -296.5 57.5t-188 161.5t-67.5 250h281q21 -123 96 -178t178 -55q90 0 154.5 26t99 72.5t34.5 106.5q0 62 -35.5 107t-98.5 70.5t-144 27.5l-138 5v232l124 7q78 3 136 29t90.5 69.5t32.5 98.5q0 53 -33 92t-91 61t-133 22q-69 0 -127 -23t-95 -75.5
t-43 -140.5h-279q0 156 73.5 259t198.5 154.5t278 51.5q162 0 288.5 -42t199.5 -128t73 -218q0 -107 -62 -188.5t-202 -129.5q80 -22 148 -67t109 -115t41 -168q0 -106 -47 -187t-130 -136t-192 -82t-233 -27z" />
    <glyph glyph-name="four.osf" horiz-adv-x="1312" 
d="M751 0l1 320h-666v240l659 886h287v-881h223v-245h-223v-320h-281zM356 565h396v530z" />
    <glyph glyph-name="five.osf" horiz-adv-x="1350" 
d="M698 -22q-142 0 -264 44t-211 120.5t-135 175.5l228 135q39 -68 88 -122.5t113.5 -86t150.5 -31.5q130 0 209 69t79 180q0 70 -35.5 125.5t-97.5 87.5t-145 32q-44 0 -83.5 -7.5t-80 -28t-89.5 -58.5q-14 -6 -19.5 -6t-20.5 7l-212 98l66 734h929l-11 -239h-687l-28 -349
q80 45 152.5 65t159.5 20q145 0 259.5 -54.5t181.5 -159.5t67 -256q0 -153 -69 -264t-195.5 -171t-299.5 -60z" />
    <glyph glyph-name="six.osf" horiz-adv-x="1321" 
d="M683 -22q-184 0 -318 89t-205.5 250t-71.5 378q0 238 72.5 411t208.5 266.5t326 93.5q136 0 251 -49.5t187.5 -143t79.5 -224.5h-267q-26 91 -88 138.5t-157 47.5q-104 0 -173 -59t-99 -165t-16 -247q33 48 84 81.5t114 51.5t131 18q147 0 257 -54.5t172 -154.5t62 -234
q0 -142 -69.5 -253.5t-193.5 -176t-287 -64.5zM673 202q70 0 126.5 32.5t90.5 90.5t34 133q0 80 -33 133t-89.5 79.5t-127.5 26.5q-62 0 -119.5 -27.5t-94 -70t-36.5 -86.5q-1 -97 30.5 -166.5t88 -107t130.5 -37.5z" />
    <glyph glyph-name="seven.osf" horiz-adv-x="1252" 
d="M349 0q8 88 40 222.5t93.5 298t155 339.5t223.5 347h-775v239h1080v-239q-69 -86 -138.5 -203t-133 -250t-114.5 -269t-82 -261t-34 -224h-315z" />
    <glyph glyph-name="eight.osf" horiz-adv-x="1342" 
d="M670 -21q-174 0 -305 51.5t-204 146.5t-73 224q0 83 41 157.5t104 126t130 65.5q-89 42 -151 120t-62 189q0 132 68.5 222.5t186.5 137.5t265 47q149 0 266.5 -47t185.5 -137.5t68 -222.5q0 -111 -61 -189t-150 -120q66 -14 129.5 -65.5t104.5 -126t41 -157.5
q0 -129 -72.5 -224t-204 -146.5t-307.5 -51.5zM670 199q128 0 200.5 57.5t72.5 152.5q0 64 -33 112.5t-94 76.5t-146 28q-83 0 -144 -28t-94 -76.5t-33 -112.5q0 -95 73 -152.5t198 -57.5zM670 863q100 0 164.5 53.5t64.5 148.5q0 94 -65 149t-164 55q-98 0 -163 -55
t-65 -149q0 -95 65 -148.5t163 -53.5z" />
    <glyph glyph-name="nine.osf" horiz-adv-x="1318" 
d="M619 -22q-135 0 -252 52t-191 146.5t-83 221.5h278q18 -84 80 -136.5t156 -52.5q104 0 182.5 49t118 156t27.5 280q-28 -53 -77.5 -92.5t-115.5 -61t-147 -21.5q-147 0 -260.5 55.5t-178 158t-64.5 243.5q0 142 68 253t190 174t286 63q184 0 317.5 -87.5t205 -248
t71.5 -377.5q0 -259 -73.5 -431.5t-210.5 -258t-327 -85.5zM645 751q61 0 118.5 27.5t94.5 69.5t37 87q1 97 -30.5 166.5t-88 106.5t-131.5 37q-69 0 -123 -32t-85 -90t-31 -134q0 -113 66 -175.5t173 -62.5z" />
    <glyph glyph-name="zero.tf" horiz-adv-x="1400" 
d="M701 -22q-263 0 -410.5 191t-147.5 550q0 240 68 407t193 253.5t297 86.5q258 0 407 -192.5t149 -553.5q0 -359 -147 -550.5t-409 -191.5zM701 217q129 0 189 115.5t60 386.5q0 277 -61 397t-189 120t-190.5 -121t-62.5 -396q0 -270 62 -386t192 -116z" />
    <glyph glyph-name="one.tf" horiz-adv-x="1400" 
d="M590 1v1133l-383 -115v254l547 174h120v-1446h-284zM185 0v246h1053v-246h-1053z" />
    <glyph glyph-name="two.tf" horiz-adv-x="1400" 
d="M193 0v144v74q0 110 41 190.5t108.5 140t148 104.5t161.5 85t148.5 80.5t108.5 90.5t41 118q0 87 -60.5 142t-165.5 55q-109 0 -185 -63t-94 -190h-279q2 138 64.5 250.5t187.5 178.5t314 66q162 0 279.5 -55t181.5 -153t64 -229q0 -109 -40 -188t-106 -135t-145 -98
t-157.5 -78t-144.5 -73.5t-106 -84.5t-40 -113v-13h737v-246h-1062z" />
    <glyph glyph-name="three.tf" horiz-adv-x="1400" 
d="M685 -22q-174 1 -296.5 57.5t-188 161.5t-67.5 250h281q21 -123 96 -178t178 -55q90 0 154.5 26t99 72.5t34.5 106.5q0 62 -35.5 107t-98.5 70.5t-144 27.5l-138 5v232l124 7q78 3 136 29t90.5 69.5t32.5 98.5q0 53 -33 92t-91 61t-133 22q-69 0 -127 -23t-95 -75.5
t-43 -140.5h-279q0 156 73.5 259t198.5 154.5t278 51.5q162 0 288.5 -42t199.5 -128t73 -218q0 -107 -62 -188.5t-202 -129.5q80 -22 148 -67t109 -115t41 -168q0 -106 -47 -187t-130 -136t-192 -82t-233 -27z" />
    <glyph glyph-name="four.tf" horiz-adv-x="1400" 
d="M778 0l1 320h-666v240l659 886h287v-881h223v-245h-223v-320h-281zM383 565h396v530z" />
    <glyph glyph-name="five.tf" horiz-adv-x="1400" 
d="M760 -22q-142 0 -264 44t-211 120.5t-135 175.5l228 135q39 -68 88 -122.5t113.5 -86t150.5 -31.5q130 0 209 69t79 180q0 70 -35.5 125.5t-97.5 87.5t-145 32q-44 0 -83.5 -7.5t-80 -28t-89.5 -58.5q-14 -6 -19.5 -6t-20.5 7l-212 98l66 734h929l-11 -239h-687l-28 -349
q80 45 152.5 65t159.5 20q145 0 259.5 -54.5t181.5 -159.5t67 -256q0 -153 -69 -264t-195.5 -171t-299.5 -60z" />
    <glyph glyph-name="six.tf" horiz-adv-x="1400" 
d="M723 -22q-184 0 -318 89t-205.5 250t-71.5 378q0 238 72.5 411t208.5 266.5t326 93.5q136 0 251 -49.5t187.5 -143t79.5 -224.5h-267q-26 91 -88 138.5t-157 47.5q-104 0 -173 -59t-99 -165t-16 -247q33 48 84 81.5t114 51.5t131 18q147 0 257 -54.5t172 -154.5t62 -234
q0 -142 -69.5 -253.5t-193.5 -176t-287 -64.5zM713 202q70 0 126.5 32.5t90.5 90.5t34 133q0 80 -33 133t-89.5 79.5t-127.5 26.5q-62 0 -119.5 -27.5t-94 -70t-36.5 -86.5q-1 -97 30.5 -166.5t88 -107t130.5 -37.5z" />
    <glyph glyph-name="seven.tf" horiz-adv-x="1400" 
d="M387 0q8 88 51.5 222.5t120 298t181.5 339.5t235 347h-852v239h1158v-239q-69 -86 -146 -203t-151.5 -250t-136.5 -269t-100 -261t-42 -224h-318z" />
    </font>
</defs>
</svg>
